Торрент файл
скачать торрент магнет ссылка Добавлен: 23 янв 2012, 20:52
Размер: 290.58 МБ
Сидеров: 1
Личеров: 6
Автор

СообщениеДобавлено: 23 янв 2012, 20:52 

Не в сети
Супермодератор
Аватара пользователя
Дата регистрации:
11 апр 2010, 18:10
Спасибо: 5995 / 7
Сообщения: 56685
В поисках безопасной сигареты / Search For A Safe Cigarette

Перевод: Профессиональный (одноголосый), cубтитры: отсутствуют
Формат: DVDRip, AVI, H.264, MP3
Страна: США
Режиссер: Карл Чарлсон
Жанр: документальный
Продолжительность: 00:57:13
Год выпуска: 2001
В ролях: Грег Коннолли, Джек Хеннингфилд, Филип Дж. Хилтс
Описание: Это практически повсеместный ритуал. Все направлено на то чтобы простимулировать и удовлетворить органы чувств. В мире каждый день выкуривается 15 миллиардов сигарет. Это больше чем по 2 на каждого жителя планеты. Внешний вид обманчив, табак в этой сигарете не горит.  То что выглядит как дым по большей части является паром полученным из воды с глицерином, с небольшим добавлением никотина для привкуса. Он образуется за счет нагрева в результате легкого процесса горения на кончике сигареты. Это один из вариантов новых товаров, которые разработаны таким образом, чтобы вырабатывалось меньше токсинов. Хотя эти сигареты выбросили на рынок в надежде, что дым от них будет не таким вредным, тем не менее этот факт вызвал бурю полемики. Производители табачной продукции будут делать все возможное, чтобы курильщики не отказались от своей привычки. Сейчас все направлено на создание безвредной сигареты. Но мы не знаем возможно ли вообще создание таковой. Сигареты никуда не денутся, они будут всегда, их нельзя запретить. Безопасная сигарета может частично решить проблему. Так как табачные компании стали предметом нападок, а жизни миллионов курильщиков находятся под постоянной угрозой. Ставки в этой игре высоки - в погоне за иллюзорной целью - в виде безопасной сигареты.
Видео: 640x368 (16:9), 23.976 fps, AVC (H.264), [email protected], 0.113 bits, 637 Kbps
Аудио: 64.0 Kbps, MPEG Layer 3, 1 ch, 48.0 Khz
Доп. информация: релиз

Format: AVI
Format/Info: Audio Video Interleave
File size: 291 MiB
Duration: 57mn 13s
Overall bit rate: 710 Kbps
Writing application: VirtualDubMod 1.5.10.2 (build 2542/release)
Writing library: VirtualDubMod build 2542/release

Video
ID: 0
Format: AVC
Format/Info: Advanced Video Codec
Format profile: [email protected]
Format settings, CABAC: Yes
Format settings, ReFrames: 3 frames
Codec ID: H264
Duration: 57mn 13s
Bit rate: 637 Kbps
Width: 640 pixels
Height: 368 pixels
Display aspect ratio: 16:9
Frame rate: 23.976 fps
Color space: YUV
Chroma subsampling: 4:2:0
Bit depth: 8 bits
Scan type: Progressive
Bits/(Pixel*Frame): 0.113
Stream size: 261 MiB (90%)
Writing library: x264 core 96 r1613kMod 81e75e9
Encoding settings: cabac=1 / ref=3 / deblock=1:0:0 / analyse=0x3:0x13 / me=umh / subme=7 / psy=1 / psy_rd=1.00:0.00 / mixed_ref=1 / me_range=16 / chroma_me=1 / trellis=1 / 8x8dct=1 / cqm=0 / deadzone=21,11 / fast_pskip=1 / chroma_qp_offset=-2 / threads=3 / sliced_threads=1 / slices=3 / nr=0 / decimate=1 / interlaced=0 / constrained_intra=0 / bframes=0 / weightp=2 / keyint=250 / keyint_min=25 / scenecut=40 / intra_refresh=0 / rc=cqp / mbtree=0 / qp=25 / ip_ratio=1.40 / aq=0

Audio
ID: 1
Format: MPEG Audio
Format version: Version 1
Format profile: Layer 3
Codec ID: 55
Codec ID/Hint: MP3
Duration: 57mn 13s
Bit rate mode: Constant
Bit rate: 64.0 Kbps
Channel(s): 1 channel
Sampling rate: 48.0 KHz
Compression mode: Lossy
Stream size: 26.2 MiB (9%)
Alignment: Split accross interleaves
Interleave, duration: 42 ms (1.00 video frame)
Interleave, preload duration: 500 ms











Поделиться:



Вернуться к началу
 Профиль Отправить личное сообщение  
 
   Похожие торренты   Автор   Торрент   Размер 
В этой теме нет новых непрочитанных сообщений. В поисках Феллини / In Search of Fellini [Драма, приключения, 2017] DVDRip, Mvo

salma3

0 | 0

1.4 ГБ

В этой теме нет новых непрочитанных сообщений. Aleska Diamond - В поисках анала 8 / Anal Cavity Search 8 (2010) DVDRip

salma3

25 | 5

717.58 МБ

В этой теме нет новых непрочитанных сообщений. Lisa Sparkle - В Поисках Анала 8 / Anal Cavity Search 8 (2010) DVDRip

salma3

3 | 0

655.27 МБ

В этой теме нет новых непрочитанных сообщений. Джек Рид: В поисках справедливости / Jack Reed: A Search for Justice [драма, криминал, детектив, 1994] DVDRip, Avo

salma3

10 | 3

1.49 ГБ

В этой теме нет новых непрочитанных сообщений. Повелитель зверей / BeastMaster [S03] (Майкл Оффер, Пино Амента, Карл Цвики) [2001, фэнтези, боевик, приключения, DVDRip]

Dracon

84 | 124

8.39 ГБ

В этой теме нет новых непрочитанных сообщений. Космос: Один голос в космической фуге [Эпизод 2] / Cosmos: One Voice in the Cosmic Fugue (Карл Саган) [1980, документальный, научно-популярный, познавательный, DVDRip]

salma3

0 | 4

929.81 МБ

В этой теме нет новых непрочитанных сообщений. Суп из сигарет / Cigarette Soup [боевик, 2017] WEB-DLRip, Mvo

salma3

341 | 128

1.37 ГБ


Начать новую тему Ответить на тему  [ 1 сообщение ] 




Для Мосгорсуда, Роскомнадзора и рекламодателей:: mosgorsud-torrent[собачка]yandex.ru
cron