Торрент файл
скачать торрент магнет ссылка Добавлен: 13 мар 2012, 01:23
Размер: 3.59 ГБ
Сидеров: 9
Личеров: 9
Автор

СообщениеДобавлено: 13 мар 2012, 01:23 

Не в сети
Супермодератор
Аватара пользователя
Дата регистрации:
22 май 2010, 11:03
Возраст: 33
Спасибо: 7730 / 13
Сообщения: 49846
Рыболов Elite № 65: Норвегия. Рыбалка твоей мечты / Видеоприложение к журналу


Перевод: Не требуется, cубтитры: отсутствуют
Формат: DVD5, DVD Video, MPEG2, AC3
Страна: Россия
Выпущено: Редакция журнала «Рыболов-Elite»
Жанр: рыбалка
Продолжительность: 01:20:00
Год выпуска: 2012

Описание: Норвегия - место паломничества самых амбициозных, самых целеустремленных и самых бесстрашных рыболов со всего мира. Великолепная рыбалка и реальная возможность добыть трофейную рыбу, будь то сайда, треска или хозяин морей - палтус.
В этом фильме мы знакомим Вас с наиболее интересными маршрутами норвежской рыбалки
и поможем правильно подготовиться к своему личному походу за трофеями.


Видео: 720x576 (PAL 4:3), MPEG Video Version 2, 25.000 fps, ~6340 kbps avg
Аудио: 48.0 KHz, AC-3, 2 ch (L R), 192 Kbps

General
Complete name: D:\фильмы\rubolov_elite_65\VIDEO_TS\VIDEO_TS.BUP
Format: DVD Video
Format profile: Menu
File size: 8.00 KiB

Video
ID: 224 (0xE0)
Format: MPEG Video
Format version: Version 1
Bit rate mode: Variable
Width: 720 pixels
Height: 480 pixels
Display aspect ratio: 4:3
Frame rate: 29.970 fps
Standard: NTSC
Compression mode: Lossy

General
Complete name: D:\фильмы\rubolov_elite_65\VIDEO_TS\VIDEO_TS.IFO
Format: DVD Video
Format profile: Menu
File size: 8.00 KiB

Video
ID: 224 (0xE0)
Format: MPEG Video
Format version: Version 1
Bit rate mode: Variable
Width: 720 pixels
Height: 480 pixels
Display aspect ratio: 4:3
Frame rate: 29.970 fps
Standard: NTSC
Compression mode: Lossy

General
Complete name: D:\фильмы\rubolov_elite_65\VIDEO_TS\VTS_01_0.BUP
Format: DVD Video
Format profile: Program
File size: 58.0 KiB
Duration: 1h 20mn
Overall bit rate: 98 bps

Video
ID: 224 (0xE0)
Format: MPEG Video
Format version: Version 2
Duration: 1h 20mn
Bit rate mode: Variable
Width: 720 pixels
Height: 576 pixels
Display aspect ratio: 4:3
Frame rate: 25.000 fps
Standard: PAL
Compression mode: Lossy

Audio
ID: 128 (0x80)
Format: AC-3
Format/Info: Audio Coding 3
Duration: 1h 20mn
Channel(s): 2 channels
Sampling rate: 48.0 KHz
Compression mode: Lossy

Menu
Duration: 1h 20mn
00:00:00.000: Chapter 1
00:00:37.080: Chapter 2
00:25:18.160: Chapter 3
00:51:18.000: Chapter 4
List (Audio): 0

General
Complete name: D:\фильмы\rubolov_elite_65\VIDEO_TS\VTS_01_0.IFO
Format: DVD Video
Format profile: Program
File size: 58.0 KiB
Duration: 1h 20mn
Overall bit rate: 98 bps

Video
ID: 224 (0xE0)
Format: MPEG Video
Format version: Version 2
Duration: 1h 20mn
Bit rate mode: Variable
Width: 720 pixels
Height: 576 pixels
Display aspect ratio: 4:3
Frame rate: 25.000 fps
Standard: PAL
Compression mode: Lossy

Audio
ID: 128 (0x80)
Format: AC-3
Format/Info: Audio Coding 3
Duration: 1h 20mn
Channel(s): 2 channels
Sampling rate: 48.0 KHz
Compression mode: Lossy

Menu
Duration: 1h 20mn
00:00:00.000: Chapter 1
00:00:37.080: Chapter 2
00:25:18.160: Chapter 3
00:51:18.000: Chapter 4
List (Audio): 0

General
Complete name: D:\фильмы\rubolov_elite_65\VIDEO_TS\VTS_01_0.VOB
Format: MPEG-PS
File size: 17.8 MiB
Duration: 21s 0ms
Overall bit rate: 7 129 Kbps
Writing library: encoded by TMPGEnc Authoring Works 4 Version. 4.0.7.32

Video
ID: 224 (0xE0)
Format: MPEG Video
Format version: Version 2
Format profile: [email protected]
Format settings, BVOP: Yes
Format settings, Matrix: Default
Format settings, GOP: M=3, N=15
Duration: 21s 0ms
Bit rate mode: Constant
Bit rate: 7 000 Kbps
Width: 720 pixels
Height: 576 pixels
Display aspect ratio: 4:3
Frame rate: 25.000 fps
Standard: PAL
Color space: YUV
Chroma subsampling: 4:2:0
Bit depth: 8 bits
Scan type: Progressive
Compression mode: Lossy
Bits/(Pixel*Frame): 0.675
Stream size: 17.5 MiB (98%)
Writing library: TMPGEnc Authoring Works 4 Version. 4.0.7.32

Text
ID: 32 (0x20)
Format: RLE
Format/Info: Run-length encoding

Menu

General
Complete name: D:\фильмы\rubolov_elite_65\VIDEO_TS\VTS_01_1.VOB
Format: MPEG-PS
File size: 1 024 MiB
Duration: 22mn 34s
Overall bit rate: 6 340 Kbps

Video
ID: 224 (0xE0)
Format: MPEG Video
Format version: Version 2
Format profile: [email protected]
Format settings, BVOP: Yes
Format settings, Matrix: Default
Duration: 22mn 34s
Bit rate mode: Variable
Bit rate: 6 000 Kbps
Width: 720 pixels
Height: 576 pixels
Display aspect ratio: 4:3
Frame rate: 25.000 fps
Standard: PAL
Color space: YUV
Chroma subsampling: 4:2:0
Bit depth: 8 bits
Scan type: Interlaced
Scan order: Bottom Field First
Compression mode: Lossy
Bits/(Pixel*Frame): 0.579
Stream size: 967 MiB (94%)

Audio
ID: 128 (0x80)
Format: AC-3
Format/Info: Audio Coding 3
Mode extension: CM (complete main)
Duration: 22mn 34s
Bit rate mode: Constant
Bit rate: 224 Kbps
Channel(s): 2 channels
Channel positions: Front: L R
Sampling rate: 48.0 KHz
Bit depth: 16 bits
Compression mode: Lossy
Stream size: 36.2 MiB (4%)

Menu

General
Complete name: D:\фильмы\rubolov_elite_65\VIDEO_TS\VTS_01_2.VOB
Format: MPEG-PS
File size: 1 024 MiB
Duration: 22mn 34s
Overall bit rate: 6 340 Kbps

Video
ID: 224 (0xE0)
Format: MPEG Video
Format version: Version 2
Format profile: [email protected]
Format settings, BVOP: Yes
Format settings, Matrix: Default
Duration: 22mn 34s
Bit rate mode: Variable
Bit rate: 6 000 Kbps
Width: 720 pixels
Height: 576 pixels
Display aspect ratio: 4:3
Frame rate: 25.000 fps
Standard: PAL
Color space: YUV
Chroma subsampling: 4:2:0
Bit depth: 8 bits
Scan type: Interlaced
Scan order: Bottom Field First
Compression mode: Lossy
Bits/(Pixel*Frame): 0.579
Stream size: 967 MiB (94%)

Audio
ID: 128 (0x80)
Format: AC-3
Format/Info: Audio Coding 3
Mode extension: CM (complete main)
Duration: 22mn 34s
Bit rate mode: Constant
Bit rate: 224 Kbps
Channel(s): 2 channels
Channel positions: Front: L R
Sampling rate: 48.0 KHz
Bit depth: 16 bits
Compression mode: Lossy
Delay relative to video: -656ms
Stream size: 36.2 MiB (4%)

Menu

General
Complete name: D:\фильмы\rubolov_elite_65\VIDEO_TS\VTS_01_3.VOB
Format: MPEG-PS
File size: 1 024 MiB
Duration: 22mn 35s
Overall bit rate: 6 338 Kbps

Video
ID: 224 (0xE0)
Format: MPEG Video
Format version: Version 2
Format profile: [email protected]
Format settings, BVOP: Yes
Format settings, Matrix: Default
Format settings, GOP: M=3, N=15
Duration: 22mn 34s
Bit rate mode: Variable
Bit rate: 6 000 Kbps
Width: 720 pixels
Height: 576 pixels
Display aspect ratio: 4:3
Frame rate: 25.000 fps
Standard: PAL
Color space: YUV
Chroma subsampling: 4:2:0
Bit depth: 8 bits
Scan type: Interlaced
Scan order: Bottom Field First
Compression mode: Lossy
Bits/(Pixel*Frame): 0.579
Stream size: 967 MiB (94%)

Audio
ID: 128 (0x80)
Format: AC-3
Format/Info: Audio Coding 3
Mode extension: CM (complete main)
Duration: 22mn 35s
Bit rate mode: Constant
Bit rate: 224 Kbps
Channel(s): 2 channels
Channel positions: Front: L R
Sampling rate: 48.0 KHz
Bit depth: 16 bits
Compression mode: Lossy
Delay relative to video: -344ms
Stream size: 36.2 MiB (4%)

Menu

General
Complete name: D:\фильмы\rubolov_elite_65\VIDEO_TS\VTS_01_4.VOB
Format: MPEG-PS
File size: 586 MiB
Duration: 12mn 57s
Overall bit rate: 6 331 Kbps

Video
ID: 224 (0xE0)
Format: MPEG Video
Format version: Version 2
Format profile: [email protected]
Format settings, BVOP: Yes
Format settings, Matrix: Default
Duration: 12mn 56s
Bit rate mode: Variable
Bit rate: 6 000 Kbps
Width: 720 pixels
Height: 576 pixels
Display aspect ratio: 4:3
Frame rate: 25.000 fps
Standard: PAL
Color space: YUV
Chroma subsampling: 4:2:0
Bit depth: 8 bits
Scan type: Interlaced
Scan order: Bottom Field First
Compression mode: Lossy
Bits/(Pixel*Frame): 0.579
Stream size: 553 MiB (94%)

Audio
ID: 128 (0x80)
Format: AC-3
Format/Info: Audio Coding 3
Mode extension: CM (complete main)
Duration: 12mn 57s
Bit rate mode: Constant
Bit rate: 224 Kbps
Channel(s): 2 channels
Channel positions: Front: L R
Sampling rate: 48.0 KHz
Bit depth: 16 bits
Compression mode: Lossy
Delay relative to video: -704ms
Stream size: 20.7 MiB (4%)

Menu









Поделиться:



Вернуться к началу
 Профиль Отправить личное сообщение  
 
   Похожие торренты   Автор   Торрент   Размер 
В этой теме нет новых непрочитанных сообщений. Sniper Elite V2 [v.1.13] [Action (Shooter), 3D, 3rd Person, Stealth, 2012] [Steam-Rip]

salma3

263 | 112

6.71 ГБ

В этой теме нет новых непрочитанных сообщений. Sniper Elite V2 [v.1.13] [+4 DLC] [Action, Shooter, 3D, 3rd Person, Stealth, 2012] [Лицензия]

salma3

56 | 31

6.95 ГБ

В этой теме нет новых непрочитанных сообщений. Sniper Elite V2: Complete Pack [Action (Shooter), 3D, 3rd Person, Stealth, 2012] [ RePack]

Sykre

22 | 8

3.45 ГБ

В этой теме нет новых непрочитанных сообщений. Sniper Elite 3 [ Action (Shooter), 3D, 1st Person, 2014] [RePack]

Sykre

53 | 8

7.01 ГБ

В этой теме нет новых непрочитанных сообщений. Элитный спецотряд / Cuerpo de Elite [комедия, 2016] HDRip, Avo

salma3

93 | 46

1.37 ГБ

В этой теме нет новых непрочитанных сообщений. Sniper Elite 3: Ultimate Edition [v.1.15a] [+DLC] [Action, 3D, 3rd Person, Stealth, 2014] [Rip]

salma3

374 | 166

10.03 ГБ

В этой теме нет новых непрочитанных сообщений. Sniper Elite 3 [v.1.14] [+13 DLC] [Action, Shooter, 3D, 3rd Person, Stealth, 2014] [RePack]

aylinjer

1 | 2

8.39 ГБ


Начать новую тему Ответить на тему  [ 1 сообщение ] 




Для Мосгорсуда, Роскомнадзора и рекламодателей:: mosgorsud-torrent[собачка]yandex.ru
cron