Торрент файл
скачать торрент магнет ссылка Добавлен: 13 мар 2012, 01:23
Размер: 2.14 ГБ
Сидеров: 20
Личеров: 16
Автор

СообщениеДобавлено: 13 мар 2012, 01:23 

Не в сети
Супермодератор
Аватара пользователя
Дата регистрации:
22 май 2010, 11:03
Возраст: 33
Спасибо: 7741 / 13
Сообщения: 49837
За голавлями (Фильм из серии «Рыбалка на Украине») от издательства «О рыбалке всерьёз»


Перевод: Не требуется, cубтитры: отсутствуют
Формат: DVD5, DVD Video, MPEG2, PCM
Страна: Украина
Режиссер: Анатолий Александров
Жанр: рыбалка
Продолжительность: 00:39:56
Год выпуска: 2011
В ролях: В. Шевченко, Б. Борисенко, С. Волкобой

Описание: Авторы проекта «О рыбалке всерьёз» (Украина, г. Днепропетровск) запускают новые тематические сборные фильмы о различных способах ловли и о разных объектах ловли.
Этот фильм объединил ловлю голавлей нахлыстовой снастью и воблерами на ультралайт.


Видео: 720x576 (PAL 4:3), MPEG Video Version 2, 25.000 fps, ~6000 kbps avg
Аудио: 48.0 KHz, PCM, 2 ch (L R), 1536 Kbps

General
Complete name: D:\фильмы\za_golovlyami\VIDEO_TS\VIDEO_TS.BUP
Format: DVD Video
Format profile: Menu
File size: 6.00 KiB

Video
ID: 224 (0xE0)
Format: MPEG Video
Format version: Version 1
Bit rate mode: Variable
Width: 720 pixels
Height: 480 pixels
Display aspect ratio: 4:3
Frame rate: 29.970 fps
Standard: NTSC
Compression mode: Lossy

General
Complete name: D:\фильмы\za_golovlyami\VIDEO_TS\VIDEO_TS.IFO
Format: DVD Video
Format profile: Menu
File size: 6.00 KiB

Video
ID: 224 (0xE0)
Format: MPEG Video
Format version: Version 1
Bit rate mode: Variable
Width: 720 pixels
Height: 480 pixels
Display aspect ratio: 4:3
Frame rate: 29.970 fps
Standard: NTSC
Compression mode: Lossy

General
Complete name: D:\фильмы\za_golovlyami\VIDEO_TS\VTS_01_0.BUP
Format: DVD Video
Format profile: Program
File size: 30.0 KiB
Duration: 39mn 56s
Overall bit rate: 102 bps

Video
ID: 224 (0xE0)
Format: MPEG Video
Format version: Version 2
Duration: 39mn 56s
Bit rate mode: Variable
Width: 720 pixels
Height: 576 pixels
Display aspect ratio: 4:3
Frame rate: 25.000 fps
Standard: PAL
Compression mode: Lossy

Audio
ID: 0 (0x0)
Format: PCM
Duration: 39mn 56s
Channel(s): 2 channels
Sampling rate: 48.0 KHz

Menu
Duration: 39mn 56s
00:00:00.000: Chapter 1
00:14:59.440: Chapter 2
00:29:59.400: Chapter 3
List (Audio): 0

General
Complete name: D:\фильмы\za_golovlyami\VIDEO_TS\VTS_01_0.IFO
Format: DVD Video
Format profile: Program
File size: 30.0 KiB
Duration: 39mn 56s
Overall bit rate: 102 bps

Video
ID: 224 (0xE0)
Format: MPEG Video
Format version: Version 2
Duration: 39mn 56s
Bit rate mode: Variable
Width: 720 pixels
Height: 576 pixels
Display aspect ratio: 4:3
Frame rate: 25.000 fps
Standard: PAL
Compression mode: Lossy

Audio
ID: 0 (0x0)
Format: PCM
Duration: 39mn 56s
Channel(s): 2 channels
Sampling rate: 48.0 KHz

Menu
Duration: 39mn 56s
00:00:00.000: Chapter 1
00:14:59.440: Chapter 2
00:29:59.400: Chapter 3
List (Audio): 0

General
Complete name: D:\фильмы\za_golovlyami\VIDEO_TS\VTS_01_1.VOB
Format: MPEG-PS
File size: 1 024 MiB
Duration: 18mn 38s
Overall bit rate: 7 677 Kbps

Video
ID: 224 (0xE0)
Format: MPEG Video
Format version: Version 2
Format profile: [email protected]
Format settings, BVOP: Yes
Format settings, Matrix: Default
Duration: 18mn 38s
Bit rate mode: Constant
Bit rate: 6 000 Kbps
Width: 720 pixels
Height: 576 pixels
Display aspect ratio: 4:3
Frame rate: 25.000 fps
Standard: PAL
Color space: YUV
Chroma subsampling: 4:2:0
Bit depth: 8 bits
Scan type: Interlaced
Scan order: Bottom Field First
Compression mode: Lossy
Bits/(Pixel*Frame): 0.579
Stream size: 799 MiB (78%)

Audio
ID: 160 (0xA0)
Format: PCM
Format settings, Endianness: Big
Format settings, Sign: Signed
Muxing mode: DVD-Video
Duration: 18mn 38s
Bit rate mode: Constant
Bit rate: 1 536 Kbps
Channel(s): 2 channels
Channel positions: Front: L R
Sampling rate: 48.0 KHz
Bit depth: 16 bits
Stream size: 205 MiB (20%)

Menu

General
Complete name: D:\фильмы\za_golovlyami\VIDEO_TS\VTS_01_2.VOB
Format: MPEG-PS
File size: 1 024 MiB
Duration: 18mn 38s
Overall bit rate: 7 679 Kbps

Video
ID: 224 (0xE0)
Format: MPEG Video
Format version: Version 2
Format profile: [email protected]
Format settings, BVOP: Yes
Format settings, Matrix: Default
Format settings, GOP: M=3, N=15
Duration: 18mn 38s
Bit rate mode: Constant
Bit rate: 6 000 Kbps
Width: 720 pixels
Height: 576 pixels
Display aspect ratio: 4:3
Frame rate: 25.000 fps
Standard: PAL
Color space: YUV
Chroma subsampling: 4:2:0
Bit depth: 8 bits
Scan type: Interlaced
Scan order: Bottom Field First
Compression mode: Lossy
Bits/(Pixel*Frame): 0.579
Stream size: 799 MiB (78%)

Audio
ID: 160 (0xA0)
Format: PCM
Format settings, Endianness: Big
Format settings, Sign: Signed
Muxing mode: DVD-Video
Duration: 18mn 38s
Bit rate mode: Constant
Bit rate: 1 536 Kbps
Channel(s): 2 channels
Channel positions: Front: L R
Sampling rate: 48.0 KHz
Bit depth: 16 bits
Delay relative to video: -273ms
Stream size: 205 MiB (20%)

Menu

General
Complete name: D:\фильмы\za_golovlyami\VIDEO_TS\VTS_01_3.VOB
Format: MPEG-PS
File size: 146 MiB
Duration: 2mn 39s
Overall bit rate: 7 665 Kbps

Video
ID: 224 (0xE0)
Format: MPEG Video
Format version: Version 2
Format profile: [email protected]
Format settings, BVOP: Yes
Format settings, Matrix: Default
Duration: 2mn 38s
Bit rate mode: Constant
Bit rate: 6 000 Kbps
Width: 720 pixels
Height: 576 pixels
Display aspect ratio: 4:3
Frame rate: 25.000 fps
Standard: PAL
Color space: YUV
Chroma subsampling: 4:2:0
Bit depth: 8 bits
Scan type: Interlaced
Scan order: Bottom Field First
Compression mode: Lossy
Bits/(Pixel*Frame): 0.579
Stream size: 113 MiB (78%)

Audio
ID: 160 (0xA0)
Format: PCM
Format settings, Endianness: Big
Format settings, Sign: Signed
Muxing mode: DVD-Video
Duration: 2mn 39s
Bit rate mode: Constant
Bit rate: 1 536 Kbps
Channel(s): 2 channels
Channel positions: Front: L R
Sampling rate: 48.0 KHz
Bit depth: 16 bits
Delay relative to video: -288ms
Stream size: 29.2 MiB (20%)

Menu








Поделиться:



Вернуться к началу
 Профиль Отправить личное сообщение  
 
   Похожие торренты   Автор   Торрент   Размер 
В этой теме нет новых непрочитанных сообщений. Охота на дьявола / Hunt For The Devil (Серии 1-16 из 16) ( Давид Ткебучава) [2017, Детектив, шпионский фильм , HDTVRip 1080i] [DD5.1]

Враг Нароода

0 | 0

36.91 ГБ

В этой теме нет новых непрочитанных сообщений. Охота на дьявола [01-16 из 16] [детектив, шпионский фильм, 2016] HDTVRip

salma3

2318 | 1082

4.36 ГБ

В этой теме нет новых непрочитанных сообщений. Испанец [Серии 1-4 из 4] (Анатолий Артамонов) [Криминал, остросюжетный, 2015] SATRip

Dracon

62 | 4

2.35 ГБ

В этой теме нет новых непрочитанных сообщений. Анатолий Кучерена - Время спрута (Анатолий Кучерена) [Детектив, 2015] MP3

Dracon

109 | 5

254.25 МБ

В этой теме нет новых непрочитанных сообщений. Черный ворон (Анатолий Алай) [2017, документальный, DVB]

salma3

0 | 0

703.31 МБ

В этой теме нет новых непрочитанных сообщений. Охота на дьявола [01-16 из 16] [детектив, 2017] SATRip-AVC

salma3

516 | 301

9.22 ГБ

В этой теме нет новых непрочитанных сообщений. Охота на работу / Get a Job [Комедия, 2016] WEBDLRip, Mvo

salma3

410 | 17

1.45 ГБ


Начать новую тему Ответить на тему  [ 1 сообщение ] 




Для Мосгорсуда, Роскомнадзора и рекламодателей:: mosgorsud-torrent[собачка]yandex.ru
cron