Торрент файл
скачать торрент магнет ссылка Добавлен: 13 мар 2012, 01:23
Размер: 2.99 ГБ
Сидеров: 22
Личеров: 12
Автор

СообщениеДобавлено: 13 мар 2012, 01:23 

Не в сети
Супермодератор
Аватара пользователя
Дата регистрации:
22 май 2010, 11:03
Возраст: 33
Спасибо: 7730 / 13
Сообщения: 49846
За окунем (Фильм из серии «Рыбалка на Украине») от издательства «О рыбалке всерьёз»


Перевод: Не требуется, cубтитры: отсутствуют
Формат: DVD5, DVD Video, MPEG2, MP2
Страна: Украина
Режиссер: Анатолий Александров
Жанр: рыбалка
Продолжительность: 01:28:26
Год выпуска: 2011
В ролях: С. Зайцев, В. Шарапов, Е. Токарев, А. Зайко

Описание: Авторы проекта «О рыбалке всерьёз» (Украина, г. Днепропетровск) запускают новые тематические сборные фильмы о различных способах ловли и о разных объектах ловли.
Этот фильм объединил много моментов о разных способах ловли окуней.
Рыбалка по открытой воде и со льда.


Видео: 720x576 (PAL 4:3), MPEG Video Version 2, 25.000 fps, ~6000 kbps avg
Аудио: 48.0 KHz, MPEG Audio Layer 2, 2 ch (L R), 224 Kbps

General
Complete name: D:\фильмы\za_okunem\VIDEO_TS\VIDEO_TS.BUP
Format: DVD Video
Format profile: Menu
File size: 6.00 KiB

Video
ID: 224 (0xE0)
Format: MPEG Video
Format version: Version 1
Bit rate mode: Variable
Width: 720 pixels
Height: 480 pixels
Display aspect ratio: 4:3
Frame rate: 29.970 fps
Standard: NTSC
Compression mode: Lossy

General
Complete name: D:\фильмы\za_okunem\VIDEO_TS\VIDEO_TS.IFO
Format: DVD Video
Format profile: Menu
File size: 6.00 KiB

Video
ID: 224 (0xE0)
Format: MPEG Video
Format version: Version 1
Bit rate mode: Variable
Width: 720 pixels
Height: 480 pixels
Display aspect ratio: 4:3
Frame rate: 29.970 fps
Standard: NTSC
Compression mode: Lossy

General
Complete name: D:\фильмы\za_okunem\VIDEO_TS\VTS_01_0.BUP
Format: DVD Video
Format profile: Program
File size: 52.0 KiB
Duration: 1h 28mn
Overall bit rate: 80 bps

Video
ID: 224 (0xE0)
Format: MPEG Video
Format version: Version 2
Duration: 1h 28mn
Bit rate mode: Variable
Width: 720 pixels
Height: 576 pixels
Display aspect ratio: 4:3
Frame rate: 25.000 fps
Standard: PAL
Compression mode: Lossy

Audio
ID: 0 (0x0)
Format: MPEG Audio
Format profile: Version 1
Duration: 1h 28mn
Channel(s): 2 channels
Sampling rate: 48.0 KHz
Compression mode: Lossy

Menu
Duration: 1h 28mn
00:00:00.000: Chapter 1
00:14:59.720: Chapter 2
00:29:59.640: Chapter 3
00:44:59.680: Chapter 4
00:59:59.480: Chapter 5
01:14:59.720: Chapter 6
List (Audio): 0

General
Complete name: D:\фильмы\za_okunem\VIDEO_TS\VTS_01_0.IFO
Format: DVD Video
Format profile: Program
File size: 52.0 KiB
Duration: 1h 28mn
Overall bit rate: 80 bps

Video
ID: 224 (0xE0)
Format: MPEG Video
Format version: Version 2
Duration: 1h 28mn
Bit rate mode: Variable
Width: 720 pixels
Height: 576 pixels
Display aspect ratio: 4:3
Frame rate: 25.000 fps
Standard: PAL
Compression mode: Lossy

Audio
ID: 0 (0x0)
Format: MPEG Audio
Format profile: Version 1
Duration: 1h 28mn
Channel(s): 2 channels
Sampling rate: 48.0 KHz
Compression mode: Lossy

Menu
Duration: 1h 28mn
00:00:00.000: Chapter 1
00:14:59.720: Chapter 2
00:29:59.640: Chapter 3
00:44:59.680: Chapter 4
00:59:59.480: Chapter 5
01:14:59.720: Chapter 6
List (Audio): 0

General
Complete name: D:\фильмы\za_okunem\VIDEO_TS\VTS_01_1.VOB
Format: MPEG-PS
File size: 1 024 MiB
Duration: 29mn 3s
Overall bit rate: 4 928 Kbps

Video
ID: 224 (0xE0)
Format: MPEG Video
Format version: Version 2
Format profile: [email protected]
Format settings, BVOP: Yes
Format settings, Matrix: Default
Duration: 29mn 3s
Bit rate mode: Variable
Bit rate: 4 606 Kbps
Nominal bit rate: 6 000 Kbps
Width: 720 pixels
Height: 576 pixels
Display aspect ratio: 4:3
Frame rate: 25.000 fps
Standard: PAL
Color space: YUV
Chroma subsampling: 4:2:0
Bit depth: 8 bits
Scan type: Interlaced
Scan order: Top Field First
Compression mode: Lossy
Bits/(Pixel*Frame): 0.444
Stream size: 957 MiB (93%)

Audio
ID: 192 (0xC0)
Format: MPEG Audio
Format version: Version 1
Format profile: Layer 2
Duration: 29mn 2s
Bit rate mode: Constant
Bit rate: 224 Kbps
Channel(s): 2 channels
Sampling rate: 48.0 KHz
Compression mode: Lossy
Stream size: 46.5 MiB (5%)

Menu

General
Complete name: D:\фильмы\za_okunem\VIDEO_TS\VTS_01_2.VOB
Format: MPEG-PS
File size: 1 024 MiB
Duration: 30mn 50s
Overall bit rate: 4 641 Kbps

Video
ID: 224 (0xE0)
Format: MPEG Video
Format version: Version 2
Format profile: [email protected]
Format settings, BVOP: Yes
Format settings, Matrix: Default
Format settings, GOP: M=3, N=15
Duration: 30mn 50s
Bit rate mode: Variable
Bit rate: 4 325 Kbps
Nominal bit rate: 6 000 Kbps
Width: 720 pixels
Height: 576 pixels
Display aspect ratio: 4:3
Frame rate: 25.000 fps
Standard: PAL
Color space: YUV
Chroma subsampling: 4:2:0
Bit depth: 8 bits
Scan type: Interlaced
Scan order: Top Field First
Compression mode: Lossy
Bits/(Pixel*Frame): 0.417
Stream size: 954 MiB (93%)

Audio
ID: 192 (0xC0)
Format: MPEG Audio
Format version: Version 1
Format profile: Layer 2
Duration: 30mn 50s
Bit rate mode: Constant
Bit rate: 224 Kbps
Channel(s): 2 channels
Sampling rate: 48.0 KHz
Compression mode: Lossy
Delay relative to video: -184ms
Stream size: 49.4 MiB (5%)

Menu

General
Complete name: D:\фильмы\za_okunem\VIDEO_TS\VTS_01_3.VOB
Format: MPEG-PS
File size: 1 013 MiB
Duration: 28mn 32s
Overall bit rate: 4 963 Kbps

Video
ID: 224 (0xE0)
Format: MPEG Video
Format version: Version 2
Format profile: [email protected]
Format settings, BVOP: Yes
Format settings, Matrix: Default
Format settings, GOP: M=3, N=15
Duration: 28mn 31s
Bit rate mode: Variable
Bit rate: 4 640 Kbps
Nominal bit rate: 6 000 Kbps
Width: 720 pixels
Height: 576 pixels
Display aspect ratio: 4:3
Frame rate: 25.000 fps
Standard: PAL
Color space: YUV
Chroma subsampling: 4:2:0
Bit depth: 8 bits
Scan type: Interlaced
Scan order: Top Field First
Compression mode: Lossy
Bits/(Pixel*Frame): 0.448
Stream size: 947 MiB (93%)

Audio
ID: 192 (0xC0)
Format: MPEG Audio
Format version: Version 1
Format profile: Layer 2
Duration: 28mn 32s
Bit rate mode: Constant
Bit rate: 224 Kbps
Channel(s): 2 channels
Sampling rate: 48.0 KHz
Compression mode: Lossy
Delay relative to video: -344ms
Stream size: 45.7 MiB (5%)

Menu










Поделиться:



Вернуться к началу
 Профиль Отправить личное сообщение  
 
   Похожие торренты   Автор   Торрент   Размер 
В этой теме нет новых непрочитанных сообщений. Охота на дьявола / Hunt For The Devil (Серии 1-16 из 16) ( Давид Ткебучава) [2017, Детектив, шпионский фильм , HDTVRip 1080i] [DD5.1]

Враг Нароода

0 | 0

36.91 ГБ

В этой теме нет новых непрочитанных сообщений. Охота на дьявола [01-16 из 16] [детектив, шпионский фильм, 2016] HDTVRip

salma3

2311 | 1078

4.36 ГБ

В этой теме нет новых непрочитанных сообщений. Испанец [Серии 1-4 из 4] (Анатолий Артамонов) [Криминал, остросюжетный, 2015] SATRip

Dracon

62 | 4

2.35 ГБ

В этой теме нет новых непрочитанных сообщений. Анатолий Кучерена - Время спрута (Анатолий Кучерена) [Детектив, 2015] MP3

Dracon

109 | 5

254.25 МБ

В этой теме нет новых непрочитанных сообщений. Внутреннее расследование [серии 1-12 из 16] (Вадим Саетгалиев) [Боевик, детектив, криминальный фильм, 2015] SatRip

Dracon

0 | 0

6.45 ГБ

В этой теме нет новых непрочитанных сообщений. Черный ворон (Анатолий Алай) [2017, документальный, DVB]

salma3

0 | 0

703.31 МБ

В этой теме нет новых непрочитанных сообщений. Охота на дьявола [01-16 из 16] [детектив, 2017] SATRip-AVC

salma3

505 | 301

9.22 ГБ


Начать новую тему Ответить на тему  [ 1 сообщение ] 




Для Мосгорсуда, Роскомнадзора и рекламодателей:: mosgorsud-torrent[собачка]yandex.ru
cron