Торрент файл
скачать торрент магнет ссылка Добавлен: 13 мар 2012, 01:22
Размер: 4.36 ГБ
Сидеров: 28
Личеров: 14
Автор

СообщениеДобавлено: 13 мар 2012, 01:22 

Не в сети
Супермодератор
Аватара пользователя
Дата регистрации:
22 май 2010, 11:03
Возраст: 33
Спасибо: 7730 / 13
Сообщения: 49846
100 секретов бывалого рыбака


Перевод: Не требуется, cубтитры: отсутствуют
Формат: DVD5, DVD Video, MPEG2, MP2
Страна: Россия
Жанр: рыбалка
Продолжительность: 04:36:50
Год выпуска: 2004
В ролях: Александр Политковский, Константин Кузьмин, Юрий Шумаков и братья Щербаковы.

Описание:
Нахлыст для всех
Большинство российских рыболовов нахлыст воспринимают, как что-то запредельно сложное, но общение с нахлыстовиками показывает, что нахлысту вполне можно научиться, и что это не просто интересно. Нахлыст - это захватывающе интересно.
Так что же такое нахлыст? На этом диске вы сможете рассмотреть, в чем состоят основные упражнения, позволяющие отработать базовую технику заброса, чем отличаются забросы одноручным и двуручным нахлыстовыми удилищами и как эти удилища «работают» на реках Кольского, Сибири и даже Америки. Опытные мастера рассказывают и показывают, как правильно подобрать элементы гармоничной, сбалансированной снасти, какие приёмы и материалы используются при ловле не только классических нахлыстовых рыб, таких как форель, лосось или хариус, но и традиционно «спиннинговых» объектов – тайменя и даже щуки и окуня.

Мушки для нахлыста
Один из самых известных за рубежом российских нахлыстовиков, профессиональный вязальщик нахлыстовых мушек, автор более 40 статей по нахлысту Юрий Шумаков делится секретами мастерства, интересными не только нахлыстовиками, но и спинингистам.
Мушки на трубах
Материалы
Техника вязания
Различные стили вязания
Авторские рецепты

Воблеры
Зачем существует так много различных типов воблеров. Описание конструктивных особенностей основных типов воблеров. Влияние расцветки и размеров воблеров на клёв рыбы и удобство ловли. Проверка игры и элементы настройки воблера. Многочисленные варианты проводки воблера. Алгоритм подбора нужной модели воблера в зависимости от условий ловли.

Современный спиннинг
Спиннер - бейт одна из лучших спиннинговых приманок для ловли щуки и окуня на отмелях озёр и водохранилищ. Очередной учебный фильм Константина Кузьмина позволит Вам, по новому взглянуть на спиннинговую рыбалку: непривычные рыбалки в привычных условиях – и очень впечатляющие результаты. Вторая часть фильма посвящена джерк-бейтам. Это гигантские (до 100гр. весом) приманки, напоминающие воблеры. Охота на щуку с джерк – бейтом пользуется огромной популярностью в США, и теперь есть все основания для того, чтобы она завоевала массу поклонников в России.


Видео: 720x576 (PAL 4:3), MPEG Video Version 2, 25.000 fps, ~9000 kbps avg
Аудио: 48.0 KHz, MPEG Audio Layer 2, 2 ch (L R), 192 Kbps

General
Complete name: D:\фильмы\100_secretov bivalogo ribaca\VIDEO_TS\VTS_01_1.VOB
Format: MPEG-PS
File size: 987 MiB
Duration: 1h 1mn
Overall bit rate: 2 247 Kbps

Video
ID: 224 (0xE0)
Format: MPEG Video
Format version: Version 2
Format profile: [email protected]
Format settings, BVOP: Yes
Format settings, Matrix: Default
Duration: 1h 1mn
Bit rate mode: Variable
Bit rate: 2 010 Kbps
Nominal bit rate: 9 000 Kbps
Width: 720 pixels
Height: 576 pixels
Display aspect ratio: 4:3
Frame rate: 25.000 fps
Standard: PAL
Color space: YUV
Chroma subsampling: 4:2:0
Bit depth: 8 bits
Scan type: Interlaced
Scan order: Bottom Field First
Compression mode: Lossy
Bits/(Pixel*Frame): 0.194
Stream size: 883 MiB (89%)

Audio
ID: 192 (0xC0)
Format: MPEG Audio
Format version: Version 1
Format profile: Layer 2
Duration: 1h 1mn
Bit rate mode: Constant
Bit rate: 192 Kbps
Channel(s): 2 channels
Sampling rate: 48.0 KHz
Compression mode: Lossy
Stream size: 84.4 MiB (9%)








Поделиться:



Вернуться к началу
 Профиль Отправить личное сообщение  
 
   Похожие торренты   Автор   Торрент   Размер 
В этой теме нет новых непрочитанных сообщений. Анаконда 2: Охота за проклятой орхидеей / Anacondas: The Hunt for the Blood Orchid [Ужасы, боевик, триллер, 2004] HDTVRip-AVC, Dub

salma3

46 | 11

748.52 МБ

В этой теме нет новых непрочитанных сообщений. Анаконда 2: Охота за проклятой орхидеей / Anacondas: The Hunt for the Blood Orchid [Ужасы, Боевик, Триллер, 2004] WEB-DLRip-AVC, Dub

salma3

95 | 15

2.91 ГБ

В этой теме нет новых непрочитанных сообщений. Анаконда 2: Охота за проклятой орхидеей / Anacondas: The Hunt for the Blood Orchid [ужасы, боевик, триллер, 2004] WEB-DL 1080p, Dub+Mvo+Dvo+Avo+Sub

salma3

32 | 4

4.73 ГБ

В этой теме нет новых непрочитанных сообщений. Из 13 в 30 / 13 Going on 30 [Комедия, мелодрама, 2004] DVD5, Mvo

salma3

7 | 0

4.33 ГБ

В этой теме нет новых непрочитанных сообщений. 21 Sextury - Пляжные Девчонки / Sandy's Girls (2004) DVD5 | Rus

salma3

24 | 4

6.6 ГБ

В этой теме нет новых непрочитанных сообщений. Охота на работу / Get a Job [Комедия, 2016] WEBDLRip, Mvo

salma3

410 | 17

1.45 ГБ

В этой теме нет новых непрочитанных сообщений. Охота на дьявола [01-16 из 16] [детектив, 2017] SATRip-AVC

salma3

505 | 301

9.22 ГБ


Начать новую тему Ответить на тему  [ 1 сообщение ] 




Для Мосгорсуда, Роскомнадзора и рекламодателей:: mosgorsud-torrent[собачка]yandex.ru
cron