Торрент файл
скачать торрент магнет ссылка Добавлен: 28 мар 2018, 20:49
Размер: 54.4 ГБ
Сидеров: 0
Личеров: 0
Автор

СообщениеДобавлено: 28 мар 2018, 20:49 

Не в сети
Супермодератор
Аватара пользователя
Дата регистрации:
15 фев 2012, 16:44
Возраст: 28
Спасибо: 7223 / 2147
Сообщения: 67780
Информация о фильме
Название: Дикая Россия
Оригинальное: Wildes Russland
Год выхода: 2009
Жанр: Документальный, природа, животные, флора, фауна, видовой
Режиссер: Кристиан Баумейстер, Оливер Гётцль, Генри Микс

О фильме:
Совершите путешествие в самые отдалённые уголки России, поражающие красотой дикой природы, где можно побывать в огнедышащих кратерах вулканов и в ледовых пустынях, встретить белого медведя и амурского тигра. Простираясь на 11 часовых поясов и расположившись на территории двух континентов, от центра Европы до Тихого океана, эта огромная страна поражает своим размахом и нетронутыми природными богатствами, которые в их первозданной красоте таят необъятные Российские просторы, раскинувшиеся вдали от шумных и тесных мегаполисов - Москвы и Санкт-Петербурга. Насладитесь редкими видами животных, экзотических птиц и завораживающими пейзажами Русской земли. Мы совершим кинопутешествие на Кавказ, Урал, Сибирь, Арктику, Дальний Восток и Камчатку. Наш удивительный фильм из шести эпизодов, ярко и красочно расскажет о флоре и фауне этого огромного царства.


Страна: Германия
Продолжительность: 6 x ~00:44:00
Перевод: Профессиональный (одноголосый закадровый) студия «Омикрон»

Файл
Кодек: MPEG-4 AVC
Качество: BDRemux 1080i
Видео: 1920x1080, 27,0 Мбит/с, 25 кадр/с
Звук: DTS-HD HRA, 6 каналов, 2046 Кбит/с

Общее
Уникальный идентификатор : 184762914792341806795669767551212897950 (0x8B000B036E0427614DFC6D7F806CC69E)
Полное имя : D:ДИКАЯ РОССИЯ1. КАВКАЗ.mkv
Формат : Matroska
Версия формата : Version 4 / Version 2
Размер файла : 9,08 Гбайт
Продолжительность : 44 м. 42 с.
Режим общего битрейта : Переменный
Общий поток : 29,1 Мбит/сек
Дата кодирования : UTC 2018-02-17 00:20:29
Программа кодирования : mkvmerge v20.0.0 ('I Am The Sun') 64-bit
Библиотека кодирования : libebml v1.3.5 + libmatroska v1.4.8

Видео
Идентификатор : 1
Формат : AVC
Формат/Информация : Advanced Video Codec
Профиль формата : [email protected]
Настройки формата : CABAC / 4 Ref Frames
Параметр CABAC формата : Да
Параметр RefFrames формата : 4 кадра
Идентификатор кодека : V_MPEG4/ISO/AVC
Продолжительность : 44 м. 42 с.
Вид битрейта : Переменный
Битрейт : 27,0 Мбит/сек
Максимальный битрейт : 36,0 Мбит/сек
Ширина : 1920 пикселей
Высота : 1080 пикселей
Соотношение сторон : 16:9
Режим частоты кадров : Переменный
Частота кадров : 50,000 кадров/сек
Частота кадров в оригинале : 25,000 кадров/сек
Стандарт вещания : PAL
Цветовое пространство : YUV
Субдискретизация насыщенности : 4:2:0
Битовая глубина : 8 бит
Тип развёртки : Чересстрочная
Метод сохранения типа развёртки : Раздельные поля
Порядок развёртки : Верхнее поле первое
Бит/(Пиксели*Кадры) : 0.261
Размер потока : 8,44 Гбайт (93%)
Default : Да
Forced : Нет
Цветовой диапазон : Limited
Основные цвета : BT.709
Характеристики трансфера : BT.709
Коэффициенты матрицы : BT.709

Аудио
Идентификатор : 2
Формат : DTS
Формат/Информация : Digital Theater Systems
Профиль формата : HRA / Core
Идентификатор кодека : A_DTS
Продолжительность : 44 м. 41 с.
Вид битрейта : Постоянный
Битрейт : 2046 Кбит/сек / 1509 Кбит/сек
Каналы : 6 каналов
Расположение каналов : Front: L C R, Side: L R, LFE
Частота : 48,0 КГц
Частота кадров : 93,750 кадра/сек (512 SPF)
Битовая глубина : 24 бит
Метод сжатия : С потерями
Размер потока : 654 Мбайт (7%)
Язык : Russian
Default : Да
1. Кавказ
От белоснежных вершин до раскаленных солнцем пустынь - всё это Кавказ. Кавказские горы - не просто горный хребет. Это богатая среда обитания для многих представителей флоры и фауны, которые прекрасно себя чувствуют и на лесистых склонах, и в альпийских лугах, и даже в солончаках. Здесь хорошо прижились дикие кабаны, евразийская рысь, европейский бизон и редкая змееподобная ломкая ящерица. Кавказ - это ещё одна жемчужина в короне Дикой природы России.

2. Урал
Совершите путешествие по величественным первозданным лесам Урала. Эти заповедные места известны своими крайностями, где прекрасно соседствуют и олени-великаны, и гигантские левиафаны, весом в полтонны, и крошечные зверьки. Сюда же, в поисках пищи, совершают свои сезонные набеги Евразийские лоси. В отличие от других видов лосей Евразийский лось живёт в одиночку, поэтому для беременной самки лося стресс от встречи с другим животным обычно приводит к драке. Как только снег в лесу начинает таять, оголяя землю, одинокие волки отправляются на поиски пищи, не брезгуя останками замерзших животных...

3. Сибирь
На её долю приходится 10 % всей суши на нашей планете. Сибирь славится своими морозами и известна миру, как одно из самых холодных мест на земле. Тем не менее, Сибирь стала домом для большого множества видов диких животных, зверей и прочих существ, включая мускусного оленя, верблюда, газель и редкий вид ящерицы - сибирского углозуба, который может провести несколько лет в замороженном состоянии при температуре - 40градусов С и выжить. От холодного севера до южных степей - всё это Сибирь, во всем её великолепии.

4. Арктика
Жизнь видов, обитающих в суровых условиях Заполярья с его экстремально низкими температурами, - это сплошная борьба за выживание. Чтобы выжить здесь ты должен быть сильным и готовым к встрече со снегом и льдом в любой миг. Крупнейшая и наименее изведанная часть этого региона принадлежит России.

5. Дальний Восток
Здесь не редкость встретить висящих на деревьях чёрных азиатских медведей, бурундуков, снующих в поисках пищи, а также пятнистых ланей, грациозно спускающихся к воде, чтобы пополнить свой рацион бурыми водорослями. Само присутствие оленей и ланей привлекает сюда самого крупного хищника в этом краю - амурского тигра. Но и самой большой в мире дикой кошке тоже грозит опасность. Браконьерство и разорение мест обитания тигров в уссурийской тайге России в течение многих лет создали реальную угрозу исчезновения этого редкого животного.

6. Камчатка
Земля огнедышащих вулканов и ледников, страна льда и пламени. Вулканический полуостров Камчатка расположен на дальнем востоке России. Из-за частых извержений вулканов и оползней рельеф местности постоянно меняется. Но, несмотря на то, что далекий Камчатский край считается опасным, он необыкновенно богат и плодороден. Исследуя богатства этой волшебной земли, фильм не пропускает ничего: в кадре - то парящие в небе беркуты, то целое семейство рыжей лисицы, а то и хозяева здешних мест - бурые медведи, с удовольствием принимающие ванны в естественных горячих источниках.


_________________
Проголосуй за трекер Открытый торрент трекер - RUS-MEDIA.ORG

Проголосуй Открытый торрент трекер - RUS-MEDIA.ORG


Вернуться к началу
 Профиль Отправить личное сообщение  
 
   Похожие торренты   Автор   Торрент   Размер 
В этой теме нет новых непрочитанных сообщений. Дикая Япония / Wildes Japan (2010) BDRemux 1080i | A

salma3

0 | 0

18.44 ГБ

В этой теме нет новых непрочитанных сообщений. Nat Geo Wild: Дикая Турция / Turkey's Harsh Paradise (2015) HDTV 1080i | P1

salma3

0 | 0

2.21 ГБ

В этой теме нет новых непрочитанных сообщений. Дикая / Wild [Драма, биография, 2014] UHD BDRemux 2160p, Dub [4K]

salma3

11 | 4

42.14 ГБ

В этой теме нет новых непрочитанных сообщений. Виверн: Возрождение дракона / Wyvern [фантастика, фэнтези. 2009] BDRemux 1080i, Mvo

salma3

32 | 7

15.44 ГБ

В этой теме нет новых непрочитанных сообщений. Nat Geo Wild: Дикая зима / Wild winter (2016) HDTV 1080i | P1

salma3

0 | 0

2.21 ГБ

В этой теме нет новых непрочитанных сообщений. Nat Geo Wild: Дикая Амазонка / Wild Amazon (2010) HDTV 1080i | D

salma3

0 | 0

4.02 ГБ

В этой теме нет новых непрочитанных сообщений. Nat Geo Wild: Дикая природа Шотландии: Высокогорье / Wild Scotland. Highlands [01-04] (2016) HDTV 1080i | P1

salma3

0 | 0

8.85 ГБ


Начать новую тему Ответить на тему  [ 1 сообщение ] 




Для Мосгорсуда, Роскомнадзора и рекламодателей:: mosgorsud-torrent[собачка]yandex.ru
cron