Торрент файл
скачать торрент магнет ссылка Добавлен: 26 дек 2011, 00:15
Размер: 1.13 ГБ
Сидеров: 2
Личеров: 8
Автор

СообщениеДобавлено: 26 дек 2011, 00:15 

Не в сети
Супермодератор
Аватара пользователя
Дата регистрации:
22 май 2010, 11:03
Возраст: 33
Спасибо: 7730 / 13
Сообщения: 49846
2 гвардейская: Несокрушимая и легендарная


Перевод: Не требуется, cубтитры: отсутствуют
Формат: DVDRip, MPEG, DivX, AC3
Страна: Россия
Режиссер: Алексей Петров
Жанр: документальный
Продолжительность: 00:26:00
Год выпуска: 2011

Описание: История создания 2 гвардейской армии. Боевой путь в Великой Отечественной войне. При создании фильма была использована хроника ВОВ.

Видео: 720x576 (4:3), 25.000 fps, MPEG Video (Version 2), ~ 5676 Kbps avg, 0.547 bit/pixel
Аудио: 48 kHz, AC3 Dolby Digital, 2 ch, (Front: L R), ~ 128.00 kbps avg

General
Complete name: E:\torrents\nesokrushimaya_i_legendarnaya_[tfile.ru].mpg
Format: MPEG-PS
File size: 1.13 GiB
Duration: 26mn 0s
Overall bit rate: 6 249 Kbps

Video
ID: 224 (0xE0)
Format: MPEG Video
Format version: Version 2
Format profile: [email protected]
Format settings, BVOP: Yes
Format settings, Matrix: Default
Format settings, GOP: M=3, N=15
Duration: 26mn 0s
Bit rate mode: Variable
Bit rate: 5 676 Kbps
Nominal bit rate: 9 000 Kbps
Width: 720 pixels
Height: 576 pixels
Display aspect ratio: 16:9
Frame rate: 25.000 fps
Standard: PAL
Color space: YUV
Chroma subsampling: 4:2:0
Bit depth: 8 bits
Scan type: Progressive
Compression mode: Lossy
Bits/(Pixel*Frame): 0.547
Stream size: 1.03 GiB (91%)

Audio
ID: 128 (0x80)
Format: AC-3
Format/Info: Audio Coding 3
Mode extension: CM (complete main)
Duration: 26mn 0s
Bit rate mode: Constant
Bit rate: 448 Kbps
Channel(s): 2 channels
Channel positions: Front: L R
Sampling rate: 48.0 KHz
Bit depth: 16 bits
Compression mode: Lossy
Stream size: 83.3 MiB (7%)








Поделиться:



Вернуться к началу
 Профиль Отправить личное сообщение  
 
   Похожие торренты   Автор   Торрент   Размер 
В этой теме нет новых непрочитанных сообщений. BBC: Вторая мировая война. За закрытыми дверьми (6 серий из 6) / World War Two - Behind Closed Doors (Лоуренс Рис, Эндрю Уильямс) [2008, документальный, военный, DVDRip] VO

salma3

0 | 5

4.99 ГБ

В этой теме нет новых непрочитанных сообщений. Первая мировая война / The Great War [01-03 из 3] [Документальный, война, история, ] ] WEB-DLRip 720p, Mvo[Кравец]

salma3

133 | 44

7.03 ГБ

В этой теме нет новых непрочитанных сообщений. Люди 1941 года. Отстоявшим Родину посвящается (Владимир Тумаев, Лидия Тумаева, Игорь Хуциев) [2001, вторая мировая война, TVRip]

salma3

0 | 3

541.62 МБ

В этой теме нет новых непрочитанных сообщений. Его звали ДЕД (Алексей Барбарук-Трипольский) [2011, документальный, военный, история, DVDRip]

salma3

0 | 3

251.32 МБ

В этой теме нет новых непрочитанных сообщений. Холодная война [1-8 серия из 8] (Наталия Метлина) [Документальный, война, история, 2015] IPTVRip

Dracon

18 | 3

4.26 ГБ

В этой теме нет новых непрочитанных сообщений. Почему немцы не переименовали Сталино в Донецк? (Алексей Меняйлов) [2013, Война, история, самиздат, WEBRip]

vairgin

51 | 15

45.58 МБ

В этой теме нет новых непрочитанных сообщений. Секреты успеха от лучших советских актеров (Алексей Меняйлов) [2012, Война, психология, самиздат, WEBRip]

vairgin

17 | 7

128.58 МБ


Начать новую тему Ответить на тему  [ 1 сообщение ] 




Для Мосгорсуда, Роскомнадзора и рекламодателей:: mosgorsud-torrent[собачка]yandex.ru
cron