Торрент файл
скачать торрент магнет ссылка Добавлен: 26 дек 2011, 00:14
Размер: 3.71 ГБ
Сидеров: 117
Личеров: 17
Автор

СообщениеДобавлено: 26 дек 2011, 00:14 

Не в сети
Супермодератор
Аватара пользователя
Дата регистрации:
22 май 2010, 11:03
Возраст: 33
Спасибо: 7741 / 13
Сообщения: 49837
ВВС: Оружие Второй Мировой Войны (10 серий из 10) / ВВС: Weapons of World War II


Перевод: Профессиональный (одноголосый), cубтитры: отсутствуют
Формат: DVDRip, AVI, XviD, AC3
Страна: Великобритания
Режиссер: Джонатан Мартин
Жанр: документальный
Продолжительность: 10x ~ 0:24:00
Год выпуска: 2003

Описание: В истории человечества Вторая мировая война предстает как самая масштабная и разрушительная из всех войн. Именно в этот период подъем военной промышленности и создание самых смертоносных видов оружия достигли своего пика. В фильме компании ВВС рассматривается развитие основных систем вооружения - с самого начала войны и до ее окончания в 1945 году.

Видео: 704x528 (1.33:1), 25 fps, XviD MPEG-4 ~1849 kbps avg, 0.20 bit/pixel
Аудио #1: 48 kHz, AC3 Dolby Digital, 2/0 (L,R) ch, ~192 kbps [Русский]
Аудио #2: 48 kHz, AC3 Dolby Digital, 2/0 (L,R) ch, ~192 kbps [Английский]
(технические данные всех серий идентичны)

General
Complete name: E:\torrents\oruzhie_vtoroi_mirovoi_[tfile.ru]\1_oruzie_vtoroi_mirovoi_tanki_[tfile.ru].avi
Format: AVI
Format/Info: Audio Video Interleave
File size: 380 MiB
Duration: 23mn 37s
Overall bit rate: 2 249 Kbps
Writing application: VirtualDubMod 1.5.10.2 (build 2540/release)
Writing library: VirtualDubMod build 2540/release

Video
ID: 0
Format: MPEG-4 Visual
Format profile: Advanced [email protected]
Format settings, BVOP: 2
Format settings, QPel: No
Format settings, GMC: No warppoints
Format settings, Matrix: Default (H.263)
Muxing mode: Packed bitstream
Codec ID: XVID
Codec ID/Hint: XviD
Duration: 23mn 37s
Bit rate: 1 850 Kbps
Width: 704 pixels
Height: 528 pixels
Display aspect ratio: 4:3
Frame rate: 25.000 fps
Color space: YUV
Chroma subsampling: 4:2:0
Bit depth: 8 bits
Scan type: Progressive
Compression mode: Lossy
Bits/(Pixel*Frame): 0.199
Stream size: 313 MiB (82%)
Writing library: XviD 1.2.1 (UTC 2008-12-04)

Audio #1
ID: 1
Format: AC-3
Format/Info: Audio Coding 3
Mode extension: CM (complete main)
Codec ID: 2000
Duration: 23mn 36s
Bit rate mode: Constant
Bit rate: 192 Kbps
Channel(s): 2 channels
Channel positions: Front: L R
Sampling rate: 48.0 KHz
Bit depth: 16 bits
Compression mode: Lossy
Stream size: 32.4 MiB (9%)
Alignment: Aligned on interleaves
Interleave, duration: 40 ms (1.00 video frame)
Interleave, preload duration: 512 ms

Audio #2
ID: 2
Format: AC-3
Format/Info: Audio Coding 3
Mode extension: CM (complete main)
Codec ID: 2000
Duration: 23mn 36s
Bit rate mode: Constant
Bit rate: 192 Kbps
Channel(s): 2 channels
Channel positions: Front: L R
Sampling rate: 48.0 KHz
Bit depth: 16 bits
Compression mode: Lossy
Stream size: 32.4 MiB (9%)
Alignment: Split accross interleaves
Interleave, duration: 40 ms (1.00 video frame)
Interleave, preload duration: 500 ms

Серия 1: Танки. Танки были главной ударной силой армий времен Второй мировой войны. Мы проследим их эволюцию от довоенных легких танков до таких тяжелых монстров, как "Пантера" и "Тигр". Значительную роль на полях сражений сыграли и средние танки - советский "Т-34" и американский "Шерман".

Серия 2: Подлодки малого класса. В составе экипажей этих миниатюрных боевых кораблей зачастую было всего лишь два человека. Тем не менее, они играли важную роль в самых масштабных эпизодах войны.

Серия 3: Планеры. Во время Второй мировой войны планеры использовались для самых опасных и отчаянных десантных операций - ведь они могли сесть в таких местах, где не смогли бы приземлиться даже парашютисты.

Серия 4: Авианосцы. Огромные авианосцы с командами из тысяч людей - сегодня самое грозное оружие на море. Эти морские гиганты - продолжатели военно-морской стратегии, родившейся во время Второй мировой войны. В сражениях между Японией и Соединёнными Штатами на Тихом океане главную роль сыграли именно авианосцы.

Серия 5: Истребители-бомбардировщики. Этот особый вид авиации родился в сражениях Второй мировой войны, когда появились самые первые истребители-бомбардировщики. Они представляли собой скоростные маневренные машины с запасом бомб на борту - грозное сочетание истребителя и бомбардировщика в одной смертоносной конструкции.

Серия 6: Тяжелые бомбардировщики. Эти самолеты наносили самый тяжелый урон наземным целям противника, массированными ударами разрушая его экономические центры и дезорганизуя промышленность.

Серия 7: Линейные корабли. Более трёхсот лет линейные корабли господствовали на море, уничтожая друг друга сокрушительными залпами. Но Вторая мировая война стала закатом линкоров, так как на море утвердилось новое оружие. Классические артиллерийские дуэли ушли в прошлое, и большая часть линкоров погибла от действий авиации и подводных лодок.

Серия 8: Ракеты. Ракетное оружие стало грозным и самым перспективным видом вооружения в годы Второй мировой войны. Переносные ракетные установки, такие как американская базука и немецкий фауст-патрон, позволяли пехоте эффективно противостоять танкам. Мощным и устрашающим оружием была советская реактивная система залпового огня БМ-13 "Катюша". А немецкие ФАУ-2 стали первыми баллистическими ракетами в мире.

Серия 9: Торпедные катера. Быстрые патрульные катера, вооруженные торпедами и пулеметами, стали настоящими морскими налетчиками Второй мировой войны. В фильме вы узнаете о самых известных атаках с их участием.

Серия 10: Пулеметы. В отличие от Первой мировой войны, пулемет уже не доминировал на поле боя, но по-прежнему оставался мощным оружием и был способен изменять ход боя при атаке позиций противника штурмовыми отрядами. Он также был очень эффективен при установке его на танках и самолетах.









Поделиться:



Вернуться к началу
 Профиль Отправить личное сообщение  
 
   Похожие торренты   Автор   Торрент   Размер 
В этой теме нет новых непрочитанных сообщений. BBC: Вторая мировая война. За закрытыми дверьми (6 серий из 6) / World War Two - Behind Closed Doors (Лоуренс Рис, Эндрю Уильямс) [2008, документальный, военный, DVDRip] VO

salma3

0 | 5

4.99 ГБ

В этой теме нет новых непрочитанных сообщений. Сражения Второй мировой войны. Курская битва (ТК RTG) [2012, документальный, HDTVRip]

salma3

3 | 3

742.91 МБ

В этой теме нет новых непрочитанных сообщений. Великие боевые машины Второй Мировой: Бомбардировщики союзников / Great Fighting Machines of WW2 - Allied Bombers (Джонатан Мур) [1990, документальный, SATRip] VO

salma3

0 | 3

277.28 МБ

В этой теме нет новых непрочитанных сообщений. Первая мировая война / The Great War [01-03 из 3] [Документальный, война, история, ] ] WEB-DLRip 720p, Mvo[Кравец]

salma3

133 | 44

7.03 ГБ

В этой теме нет новых непрочитанных сообщений. Люди 1941 года. Отстоявшим Родину посвящается (Владимир Тумаев, Лидия Тумаева, Игорь Хуциев) [2001, вторая мировая война, TVRip]

salma3

0 | 3

541.62 МБ

В этой теме нет новых непрочитанных сообщений. История огнестрельного оружия США (13 серий из 13) / Midway USA. Gun Stories (Тим Кремин) [2011, документальный, оружие, HDTVRip] VO

salma3

1 | 1

4.12 ГБ

В этой теме нет новых непрочитанных сообщений. Самые странные животные в мире / World's Weirdest Animal Faces (Мартин Бэйкер) [2017, документальный, природа, фауна, HDTVRip-AVC] VO

salma3

0 | 0

847.99 МБ


Начать новую тему Ответить на тему  [ 1 сообщение ] 




Для Мосгорсуда, Роскомнадзора и рекламодателей:: mosgorsud-torrent[собачка]yandex.ru
cron