Торрент файл
скачать торрент магнет ссылка Добавлен: 26 дек 2011, 00:13
Размер: 498.32 МБ
Сидеров: 9
Личеров: 8
Автор

СообщениеДобавлено: 26 дек 2011, 00:13 

Не в сети
Супермодератор
Аватара пользователя
Дата регистрации:
22 май 2010, 11:03
Возраст: 33
Спасибо: 7741 / 13
Сообщения: 49837
Вторая Мировая - Нападение нацистов (Фильм 7) / The Nazis Strike


Перевод: Профессиональный (одноголосый), cубтитры: отсутствуют
Формат: DVDRip, AVI, XviD, MP3
Страна: США
Режиссер: Фрэнк Капра, Анатоль Литвак
Жанр: документальный
Продолжительность: 00:42:32
Год выпуска: 1943

Описание: В этом фильме мы видим дипломатические и военные действия Нацистской Германии, узнаём о последовательном нарушении Нацистами одного мирного договора за другим, и вплоть до вторжения в сентябре 1939 года в Польшу, которое вынуждает Великобританию и Францию, наконец, объявить войну Гитлеру.



Видео: 592x448 (1.32:1), 23.976 fps, XviD Final 1.1 (build 41) ~1500 kbps avg, 0.24 bit/pixel
Аудио: 48 kHz, MPEG Layer 3, 2 ch, ~128.00 kbps avg

Доп. информация:
Фильм 1 "Атака в Тихом океане"
Фильм 2 "Битва за Новую Британию"
Фильм 3 "Направление Токио"
Фильм 4 "Битва за Россию"
Фильм 5 "Прелюдия к войне"
Фильм 6 "Разделить и победить"

General
Complete name: E:\torrents\the_nazis_strike_[tfile.ru].avi
Format: AVI
Format/Info: Audio Video Interleave
File size: 498 MiB
Duration: 42mn 32s
Overall bit rate: 1 638 Kbps
Writing application: VirtualDubMod 1.5.10.2 (build 2540/release)
Writing library: VirtualDubMod build 2540/release

Video
ID: 0
Format: MPEG-4 Visual
Format profile: Advanced [email protected]
Format settings, BVOP: 1
Format settings, QPel: No
Format settings, GMC: No warppoints
Format settings, Matrix: Custom
Codec ID: XVID
Codec ID/Hint: XviD
Duration: 42mn 32s
Bit rate: 1 501 Kbps
Width: 592 pixels
Height: 448 pixels
Display aspect ratio: 4:3
Frame rate: 23.976 fps
Color space: YUV
Chroma subsampling: 4:2:0
Bit depth: 8 bits
Scan type: Progressive
Compression mode: Lossy
Bits/(Pixel*Frame): 0.236
Stream size: 457 MiB (92%)
Writing library: XviD 1.1.0 (UTC 2005-11-22)

Audio
ID: 1
Format: MPEG Audio
Format version: Version 1
Format profile: Layer 3
Mode: Joint stereo
Mode extension: MS Stereo
Codec ID: 55
Codec ID/Hint: MP3
Duration: 42mn 32s
Bit rate mode: Constant
Bit rate: 128 Kbps
Channel(s): 2 channels
Sampling rate: 48.0 KHz
Compression mode: Lossy
Stream size: 38.9 MiB (8%)
Alignment: Aligned on interleaves
Interleave, duration: 42 ms (1.00 video frame)
Interleave, preload duration: 504 ms
Language: Russian







Поделиться:



Вернуться к началу
 Профиль Отправить личное сообщение  
 
   Похожие торренты   Автор   Торрент   Размер 
В этой теме нет новых непрочитанных сообщений. BBC: Вторая мировая война. За закрытыми дверьми (6 серий из 6) / World War Two - Behind Closed Doors (Лоуренс Рис, Эндрю Уильямс) [2008, документальный, военный, DVDRip] VO

salma3

0 | 5

4.99 ГБ

В этой теме нет новых непрочитанных сообщений. Люди 1941 года. Отстоявшим Родину посвящается (Владимир Тумаев, Лидия Тумаева, Игорь Хуциев) [2001, вторая мировая война, TVRip]

salma3

0 | 3

541.62 МБ

В этой теме нет новых непрочитанных сообщений. Первая мировая война / The Great War [01-03 из 3] [Документальный, война, история, ] ] WEB-DLRip 720p, Mvo[Кравец]

salma3

133 | 44

7.03 ГБ

В этой теме нет новых непрочитанных сообщений. Полярное братство. Фильм Валдиса Пельша (Никита Снегов) [2018, документальный, война, история, SATRip]

salma3

0 | 0

804.22 МБ

В этой теме нет новых непрочитанных сообщений. Мировая колбаса. Как делать домашнюю колбасу, сосиски и сардельки (Елена Скрипко) [2016, Кулинария, PDF, eBook (изначально компьютерное)]

salma3

20 | 2

36.47 МБ

В этой теме нет новых непрочитанных сообщений. Вторая молодость [Мелодрама, 2017] WEB-DLRip

salma3

649 | 56

1.37 ГБ

В этой теме нет новых непрочитанных сообщений. Вторая жизнь Евы [01-08 из 08] [Мелодрама, приключения, 2017] DVB

salma3

38 | 162

10.66 ГБ


Начать новую тему Ответить на тему  [ 1 сообщение ] 




Для Мосгорсуда, Роскомнадзора и рекламодателей:: mosgorsud-torrent[собачка]yandex.ru
cron