Торрент файл
скачать торрент магнет ссылка Добавлен: 26 дек 2011, 00:13
Размер: 612.25 МБ
Сидеров: 5
Личеров: 8
Автор

СообщениеДобавлено: 26 дек 2011, 00:13 

Не в сети
Супермодератор
Аватара пользователя
Дата регистрации:
22 май 2010, 11:03
Возраст: 33
Спасибо: 7741 / 13
Сообщения: 49837
Вторая Мировая - Битва за Британию (Фильм 8.) / The Battle Of Britain


Перевод: Профессиональный (одноголосый), cубтитры: отсутствуют
Формат: DVDRip, AVI, DivX, MP3
Страна: США
Режиссер: Фрэнк Капра, Энтони Вейллер
Жанр: документальный
Продолжительность: 00:52:34
Год выпуска: 1943

Описание: «Битва за Британию» — это ода храбрости и самопожертвованию британского народа перед лицом постоянных бомбардировок войск Гитлера, рассказанная дважды контуженным во время войны пилотом Дугласом Бадером. В 1940 году Британия была единственной европейской страной, не сдавшейся в руки врага. В конце, британские пилоты готовят наступление, чтобы отразить натиск войск фашистской Германии.



Видео: 720x480 (1.50:1), 29.970 fps, DivX Codec 5.x or 6.x ~1456 kbps avg, 0.14 bit/pixel
Аудио: 44.100 kHz, MPEG Layer 3, 2 ch, ~160.00 kbps avg

Доп. информация:
Фильм 1 "Атака в Тихом океане"
Фильм 2 "Битва за Новую Британию"
Фильм 3 "Направление Токио"
Фильм 4 "Битва за Россию"
Фильм 5 "Прелюдия к войне"
Фильм 6 "Разделить и победить"
Фильм 7 "Нападение нацистов"

General
Complete name: E:\torrents\bitva_za_britaniju_[tfile.ru].avi
Format: AVI
Format/Info: Audio Video Interleave
File size: 612 MiB
Duration: 52mn 34s
Overall bit rate: 1 628 Kbps
Writing library: Boilsoft Joiner build 2411/release

Video
ID: 0
Format: MPEG-4 Visual
Format profile: [email protected]
Format settings, BVOP: No
Format settings, QPel: No
Format settings, GMC: No warppoints
Format settings, Matrix: Default (H.263)
Codec ID: DX50
Codec ID/Hint: DivX 5
Duration: 52mn 34s
Bit rate: 1 456 Kbps
Width: 720 pixels
Height: 480 pixels
Display aspect ratio: 3:2
Frame rate: 29.970 fps
Standard: NTSC
Color space: YUV
Chroma subsampling: 4:2:0
Bit depth: 8 bits
Scan type: Interlaced
Scan order: Top Field First
Compression mode: Lossy
Bits/(Pixel*Frame): 0.141
Stream size: 548 MiB (89%)
Writing library: Lavc51.44.0

Audio
ID: 1
Format: MPEG Audio
Format version: Version 1
Format profile: Layer 3
Mode: Joint stereo
Mode extension: MS Stereo
Codec ID: 55
Codec ID/Hint: MP3
Duration: 52mn 34s
Bit rate mode: Constant
Bit rate: 160 Kbps
Channel(s): 2 channels
Sampling rate: 44.1 KHz
Compression mode: Lossy
Stream size: 60.2 MiB (10%)
Alignment: Split accross interleaves
Interleave, duration: 33 ms (1.00 video frame)
Interleave, preload duration: 500 ms








Поделиться:



Вернуться к началу
 Профиль Отправить личное сообщение  
 
   Похожие торренты   Автор   Торрент   Размер 
В этой теме нет новых непрочитанных сообщений. BBC: Вторая мировая война. За закрытыми дверьми (6 серий из 6) / World War Two - Behind Closed Doors (Лоуренс Рис, Эндрю Уильямс) [2008, документальный, военный, DVDRip] VO

salma3

0 | 5

4.99 ГБ

В этой теме нет новых непрочитанных сообщений. Люди 1941 года. Отстоявшим Родину посвящается (Владимир Тумаев, Лидия Тумаева, Игорь Хуциев) [2001, вторая мировая война, TVRip]

salma3

0 | 3

541.62 МБ

В этой теме нет новых непрочитанных сообщений. Первая мировая война / The Great War [01-03 из 3] [Документальный, война, история, ] ] WEB-DLRip 720p, Mvo[Кравец]

salma3

133 | 44

7.03 ГБ

В этой теме нет новых непрочитанных сообщений. Битва за Варшаву / Battle for Warsaw (Ванда Косча) [2005, документальный, SATRip] VO

salma3

0 | 2

350.87 МБ

В этой теме нет новых непрочитанных сообщений. Discovery: Османы и христиане: Битва за Европу / Ottomans Versus Christians: Battle for Europe [01] [Документальный, история, исследование, 2016] HDTVRip, Avo

salma3

118 | 4

548.03 МБ

В этой теме нет новых непрочитанных сообщений. Битва воина / Battle Warrior / Nuk soo dane song kram [ужасы, боевик, приключения, 1996] DVDRip, Avo

salma3

56 | 7

1.46 ГБ

В этой теме нет новых непрочитанных сообщений. Полярное братство. Фильм Валдиса Пельша (Никита Снегов) [2018, документальный, война, история, SATRip]

salma3

0 | 0

804.22 МБ


Начать новую тему Ответить на тему  [ 1 сообщение ] 




Для Мосгорсуда, Роскомнадзора и рекламодателей:: mosgorsud-torrent[собачка]yandex.ru
cron