Торрент файл
скачать торрент магнет ссылка Добавлен: 26 дек 2011, 00:13
Размер: 700.39 МБ
Сидеров: 7
Личеров: 7
Автор

СообщениеДобавлено: 26 дек 2011, 00:13 

Не в сети
Супермодератор
Аватара пользователя
Дата регистрации:
22 май 2010, 11:03
Возраст: 33
Спасибо: 7741 / 13
Сообщения: 49837
Вторая мировая - Битва за Китай (Фильм 10) / The Battle Of China


Перевод: Профессиональный (одноголосый), cубтитры: отсутствуют
Формат: DVDRip, AVI, DivX, MP3
Страна: США
Режиссер: Фрэнк Капра, Анатоль Литвак
Жанр: документальный
Продолжительность: 01:02:56
Год выпуска: 1944

Описание: В этом великолепном документальном фильме мы увидим рассказ о Китае и его жителях. После небольшого экскурса в историю мы поймем, почему японские войска так хотели завоевать Китай, и почему они были так уверены в своей победе. В конце концов, мы увидим историю войны в этом регионе, а также борьбу жителей страны, которые приложили всю свою изобретательность, чтобы отбиться от японских захватчиков.



Видео: 512x384 (1.33:1), 23.976 fps, DivX Codec 6.8.5/6.9.1 ~1434 kbps avg, 0.30 bit/pixel
Аудио: 48 kHz, MPEG Layer 3, 2 ch, ~107.66 kbps avg

Доп. информация:
Фильм 1 "Атака в Тихом океане"
Фильм 2 "Битва за Новую Британию"
Фильм 3 "Направление Токио"
Фильм 4 "Битва за Россию"
Фильм 5 "Прелюдия к войне"
Фильм 6 "Разделить и победить"
Фильм 7 "Нападение нацистов"
Фильм 8 "Битва за Британию"
Фильм 9 "Победа в Тунисе"

General
Complete name: E:\torrents\bitva_za_kitai_[tfile.ru].avi
Format: AVI
Format/Info: Audio Video Interleave
File size: 700 MiB
Duration: 1h 2mn
Overall bit rate: 1 556 Kbps
Writing application: VirtualDubMod 1.5.4.1 (build 2178/release)
Writing library: VirtualDubMod build 2178/release

Video
ID: 0
Format: MPEG-4 Visual
Format settings, BVOP: 1
Format settings, QPel: No
Format settings, GMC: No warppoints
Format settings, Matrix: Default (H.263)
Muxing mode: Packed bitstream
Codec ID: DX50
Codec ID/Hint: DivX 5
Duration: 1h 2mn
Bit rate: 1 436 Kbps
Width: 512 pixels
Height: 384 pixels
Display aspect ratio: 4:3
Frame rate: 23.976 fps
Color space: YUV
Chroma subsampling: 4:2:0
Bit depth: 8 bits
Scan type: Progressive
Compression mode: Lossy
Bits/(Pixel*Frame): 0.305
Stream size: 646 MiB (92%)
Writing library: DivX 6.8.5 (UTC 2009-08-20)

Audio
ID: 1
Format: MPEG Audio
Format version: Version 1
Format profile: Layer 3
Mode: Joint stereo
Mode extension: MS Stereo
Codec ID: 55
Codec ID/Hint: MP3
Duration: 1h 2mn
Bit rate mode: Variable
Bit rate: 108 Kbps
Channel(s): 2 channels
Sampling rate: 48.0 KHz
Compression mode: Lossy
Stream size: 48.4 MiB (7%)
Alignment: Aligned on interleaves
Interleave, duration: 24 ms (0.58 video frame)
Interleave, preload duration: 552 ms
Language: Russian








Поделиться:



Вернуться к началу
 Профиль Отправить личное сообщение  
 
   Похожие торренты   Автор   Торрент   Размер 
В этой теме нет новых непрочитанных сообщений. BBC: Вторая мировая война. За закрытыми дверьми (6 серий из 6) / World War Two - Behind Closed Doors (Лоуренс Рис, Эндрю Уильямс) [2008, документальный, военный, DVDRip] VO

salma3

0 | 5

4.99 ГБ

В этой теме нет новых непрочитанных сообщений. Люди 1941 года. Отстоявшим Родину посвящается (Владимир Тумаев, Лидия Тумаева, Игорь Хуциев) [2001, вторая мировая война, TVRip]

salma3

0 | 3

541.62 МБ

В этой теме нет новых непрочитанных сообщений. Первая мировая война / The Great War [01-03 из 3] [Документальный, война, история, ] ] WEB-DLRip 720p, Mvo[Кравец]

salma3

133 | 44

7.03 ГБ

В этой теме нет новых непрочитанных сообщений. Китай времен Мао / Viasat History. Inside Mao’s China (Мартин Гронмейер) [2016, документальный, история, HDTVRip] DUB

salma3

1 | 3

783.92 МБ

В этой теме нет новых непрочитанных сообщений. Китай. Тайны Запретного города / Secrets of China's Forbidden City [2017, документальный, история, архитектура, HDTVRip] DUB

salma3

0 | 0

699.56 МБ

В этой теме нет новых непрочитанных сообщений. Битва за Варшаву / Battle for Warsaw (Ванда Косча) [2005, документальный, SATRip] VO

salma3

0 | 2

350.87 МБ

В этой теме нет новых непрочитанных сообщений. Discovery: Османы и христиане: Битва за Европу / Ottomans Versus Christians: Battle for Europe [01] [Документальный, история, исследование, 2016] HDTVRip, Avo

salma3

118 | 4

548.03 МБ


Начать новую тему Ответить на тему  [ 1 сообщение ] 




Для Мосгорсуда, Роскомнадзора и рекламодателей:: mosgorsud-torrent[собачка]yandex.ru
cron