Торрент файл
скачать торрент магнет ссылка Добавлен: 26 дек 2011, 00:13
Размер: 1.36 ГБ
Сидеров: 0
Личеров: 11
Автор

СообщениеДобавлено: 26 дек 2011, 00:13 

Не в сети
Супермодератор
Аватара пользователя
Дата регистрации:
22 май 2010, 11:03
Возраст: 33
Спасибо: 7730 / 13
Сообщения: 49846
Вторая мировая. К берегам Иво Джимы. Это Гуадалканал / To the Shores of Iwo Jima. This is Guadalcanal


Перевод: Профессиональный (одноголосый), cубтитры: отсутствуют
Формат: DVDRip, AVI, DivX, MP3
Страна: США
Режиссер: Милтон Спелинг
Жанр: документальный
Продолжительность: 00:40:36
Год выпуска: 1945

Описание: К берегам Иво Джимы
Номинированный к награде Академией документальных фильмов как лучший документальный фильм, этот 20-минутная картина, снятая на Technicolor иллюстрирует продолжавшееся почти месяц отчаянное и яростное сражение за вулканический остров Иво Джима, лежащий в 700 милях к юго-востоку от Японии. В ходе этого сражения были убиты почти 20 000 японских и 7 000 американских военнослужащих. Сражение было увековечено фотографией Джо Розенталя на которой пять морских пехотинцев и флотских corpsman поднимают гигантский американский флаг на 550 футовой вершине самой высокой островной горы Сурибачи.
Это Гуадалканал
"Фильм посвящается мужчинам и женщинам работавшим на военных заводах США в благодарность за из вклад во имя победы союзных войск". Фильм посвященный высадке американских войск на Гуадалканал.




Видео: 720x544 (1.32:1), 29.970 fps, DivX Codec 6.8.5/6.9.1 ~4689 kbps avg, 0.40 bit/pixel
Аудио: 48 kHz, MPEG Layer 3, 2 ch, ~102.35 kbps avg

Доп. информация:
Фильм 1 "Атака в Тихом океане"
Фильм 2 "Битва за Новую Британию"
Фильм 3 "Направление Токио"
Фильм 4 "Битва за Россию"
Фильм 5 "Прелюдия к войне"
Фильм 6 "Разделить и победить"
Фильм 7 "Нападение нацистов"
Фильм 8 "Битва за Британию"
Фильм 9 "Победа в Тунисе"
Фильм 10 "Битва за Китай"

General
Complete name: E:\torrents\k_beregam_iwo_jima_[tfile.ru].avi
Format: AVI
Format/Info: Audio Video Interleave
File size: 1.36 GiB
Duration: 40mn 36s
Overall bit rate: 4 806 Kbps
Writing application: VirtualDubMod 1.5.4.1 (build 2178/release)
Writing library: VirtualDubMod build 2178/release

Video
ID: 0
Format: MPEG-4 Visual
Format settings, BVOP: 1
Format settings, QPel: No
Format settings, GMC: No warppoints
Format settings, Matrix: Default (H.263)
Muxing mode: Packed bitstream
Codec ID: DX50
Codec ID/Hint: DivX 5
Duration: 40mn 36s
Bit rate: 4 690 Kbps
Width: 720 pixels
Height: 544 pixels
Display aspect ratio: 4:3
Frame rate: 29.970 fps
Color space: YUV
Chroma subsampling: 4:2:0
Bit depth: 8 bits
Scan type: Progressive
Compression mode: Lossy
Bits/(Pixel*Frame): 0.400
Stream size: 1.33 GiB (98%)
Writing library: DivX 6.8.5 (UTC 2009-08-20)

Audio
ID: 1
Format: MPEG Audio
Format version: Version 1
Format profile: Layer 3
Mode: Joint stereo
Mode extension: MS Stereo
Codec ID: 55
Codec ID/Hint: MP3
Duration: 40mn 36s
Bit rate mode: Variable
Bit rate: 102 Kbps
Channel(s): 2 channels
Sampling rate: 48.0 KHz
Compression mode: Lossy
Stream size: 29.7 MiB (2%)
Alignment: Aligned on interleaves
Interleave, duration: 24 ms (0.72 video frame)
Interleave, preload duration: 525 ms
Language: Russian








Поделиться:



Вернуться к началу
 Профиль Отправить личное сообщение  
 
   Похожие торренты   Автор   Торрент   Размер 
В этой теме нет новых непрочитанных сообщений. BBC: Вторая мировая война. За закрытыми дверьми (6 серий из 6) / World War Two - Behind Closed Doors (Лоуренс Рис, Эндрю Уильямс) [2008, документальный, военный, DVDRip] VO

salma3

0 | 5

4.99 ГБ

В этой теме нет новых непрочитанных сообщений. Люди 1941 года. Отстоявшим Родину посвящается (Владимир Тумаев, Лидия Тумаева, Игорь Хуциев) [2001, вторая мировая война, TVRip]

salma3

0 | 3

541.62 МБ

В этой теме нет новых непрочитанных сообщений. Первая мировая война / The Great War [01-03 из 3] [Документальный, война, история, ] ] WEB-DLRip 720p, Mvo[Кравец]

salma3

133 | 44

7.03 ГБ

В этой теме нет новых непрочитанных сообщений. История Германского Военно-Морского Флота 1914-1945 / Die geschichte der deutschen kriegsmarine 1914-1945 (Йохан Ханке, Карл Хофкис) [2003, документальный, DVDRip] VO

salma3

0 | 3

700.28 МБ

В этой теме нет новых непрочитанных сообщений. Мировая колбаса. Как делать домашнюю колбасу, сосиски и сардельки (Елена Скрипко) [2016, Кулинария, PDF, eBook (изначально компьютерное)]

salma3

20 | 2

36.47 МБ

В этой теме нет новых непрочитанных сообщений. Вторая молодость [Мелодрама, 2017] WEB-DLRip

salma3

649 | 56

1.37 ГБ

В этой теме нет новых непрочитанных сообщений. Вторая молодость [Мелодрама, 2017] WEB-DLRip-AVC

salma3

258 | 22

1.37 ГБ


Начать новую тему Ответить на тему  [ 1 сообщение ] 




Для Мосгорсуда, Роскомнадзора и рекламодателей:: mosgorsud-torrent[собачка]yandex.ru
cron