Торрент файл
скачать торрент магнет ссылка Добавлен: 25 дек 2011, 23:54
Размер: 533.16 МБ
Сидеров: 11
Личеров: 7
Автор

СообщениеДобавлено: 25 дек 2011, 23:54 

Не в сети
Супермодератор
Аватара пользователя
Дата регистрации:
22 май 2010, 11:03
Возраст: 33
Спасибо: 7741 / 13
Сообщения: 49837
Оборона Трубчевска


Перевод: Не требуется, cубтитры: отсутствуют
Формат: DVDRip, AVI, H.263, MP3
Страна: Россия
Режиссер: Геннадий Соболев
Жанр: документальный
Продолжительность: 0:55:38
Год выпуска: 2011

Описание: Фильм рассказывает о событиях 20 августа - 22 октября 1941 г. у Трубчевска, его обороне войсками Брянского фронта, открывает малоизученные и малоизвестные факты противостояния Красной армии фашистской операции "Интермеццо".
В основе фильма - подленные карты боевых действий, донесения Брянского фронта, дневники немецких и советских генералов и другие документы того времени.


Видео: 720x576 (1.25:1), 25 fps, MPEG-4 Visual (H.263), [email protected], ~1199 kbps avg, 0.116 bit/pixel
Аудио: 44.100 kHz, MPEG Layer 3, 2 ch, ~128.00 kbps avg

General
Complete name: E:\torrents\oborona_trubchevska_[tfile.ru].avi
Format: AVI
Format/Info: Audio Video Interleave
File size: 533 MiB
Duration: 55mn 38s
Overall bit rate: 1 340 Kbps
Writing application: Lavf51.12.1

Video
ID: 0
Format: MPEG-4 Visual
Format profile: [email protected]
Format settings, BVOP: No
Format settings, QPel: No
Format settings, GMC: No warppoints
Format settings, Matrix: Default (H.263)
Codec ID: FMP4
Duration: 55mn 38s
Bit rate: 1 199 Kbps
Width: 720 pixels
Height: 576 pixels
Display aspect ratio: 5:4
Frame rate: 25.000 fps
Standard: PAL
Color space: YUV
Chroma subsampling: 4:2:0
Bit depth: 8 bits
Scan type: Progressive
Compression mode: Lossy
Bits/(Pixel*Frame): 0.116
Stream size: 477 MiB (90%)
Writing library: Lavc51.40.4

Audio
ID: 1
Format: MPEG Audio
Format version: Version 1
Format profile: Layer 3
Mode: Joint stereo
Mode extension: MS Stereo
Codec ID: 55
Codec ID/Hint: MP3
Duration: 55mn 38s
Bit rate mode: Constant
Bit rate: 128 Kbps
Channel(s): 2 channels
Sampling rate: 44.1 KHz
Compression mode: Lossy
Stream size: 50.9 MiB (10%)
Alignment: Aligned on interleaves
Interleave, duration: 26 ms (0.65 video frame)








Поделиться:



Вернуться к началу
 Профиль Отправить личное сообщение  
 
   Похожие торренты   Автор   Торрент   Размер 
В этой теме нет новых непрочитанных сообщений. BBC: Вторая мировая война. За закрытыми дверьми (6 серий из 6) / World War Two - Behind Closed Doors (Лоуренс Рис, Эндрю Уильямс) [2008, документальный, военный, DVDRip] VO

salma3

0 | 5

4.99 ГБ

В этой теме нет новых непрочитанных сообщений. Первая мировая война / The Great War [01-03 из 3] [Документальный, война, история, ] ] WEB-DLRip 720p, Mvo[Кравец]

salma3

133 | 44

7.03 ГБ

В этой теме нет новых непрочитанных сообщений. Люди 1941 года. Отстоявшим Родину посвящается (Владимир Тумаев, Лидия Тумаева, Игорь Хуциев) [2001, вторая мировая война, TVRip]

salma3

0 | 3

541.62 МБ

В этой теме нет новых непрочитанных сообщений. Холодная война [1-8 серия из 8] (Наталия Метлина) [Документальный, война, история, 2015] IPTVRip

Dracon

18 | 3

4.26 ГБ

В этой теме нет новых непрочитанных сообщений. Геннадий Хазанов. Без антракта (Россия, Первый канал) [Документальный, биография, 2015] HDTVRip

Dracon

591 | 39

716.98 МБ

В этой теме нет новых непрочитанных сообщений. Гражданская Оборона - Реанимация (Vinyl Rip) [2015, Русский рок, панк, MP3]

salma3

4 | 0

154.31 МБ

В этой теме нет новых непрочитанных сообщений. Легенды госбезопасности [01-02] (Документальный, спецслужбы, война, история, 2016) SATRip от Files-х

marya111

160 | 47

3.83 ГБ


Начать новую тему Ответить на тему  [ 1 сообщение ] 




Для Мосгорсуда, Роскомнадзора и рекламодателей:: mosgorsud-torrent[собачка]yandex.ru
cron