Торрент файл
скачать торрент магнет ссылка Добавлен: 20 мар 2018, 16:34
Размер: 509.9 МБ
Сидеров: 0
Личеров: 0
Автор

СообщениеДобавлено: 20 мар 2018, 16:34 

Не в сети
Супермодератор
Аватара пользователя
Дата регистрации:
15 фев 2012, 16:44
Возраст: 28
Спасибо: 7203 / 2147
Сообщения: 65002
Катюша. Голос Победы


Перевод: Не требуется, cубтитры: отсутствуют
Формат: DVB, MPEG-TS, H.264, MP2
Страна: Республика Беларусь
Режиссер: Юлия Гончар
Жанр: документальный
Продолжительность: 00:26:49
Год выпуска: 2014

Описание: 70-летию Великой Победы посвящается.
Фильм о судьбе самого грозного оружия Великой Отечественной войны снятый белорусскими журналистами. Уникальные кадры кинохроники, воспоминания ветеранов ВОВ, комментарии специалистов - всем этим наполнен фильм-повествование о уникальном оружие Победы.


Видео: 720(785)x576 (4:3), 25,000 fps, AVC (х264), [email protected], 2268 Кбит/сек, ~ 0.219 bit/pixel
Аудио: 48 kHz, MPEG Layer 2, 2 ch, ~256.00 kbps avg

General
ID : 1 (0x1)
Complete name : D:\Новая земля 2\001 Документальный фильмы\ВОВ и другие войны\Катюша. Голос Победы (2014)\Катюша. Голос Победы (2014).ts
Format : MPEG-TS
File size : 510 MiB
Duration : 26 min
Overall bit rate mode : Variable
Overall bit rate : 2 658 kb/s

Video
ID : 513 (0x201)
Menu ID : 1 (0x1)
Format : AVC
Format/Info : Advanced Video Codec
Format profile : [email protected]
Format settings, CABAC : Yes
Format settings, ReFrames : 4 frames
Codec ID : 27
Duration : 26 min
Bit rate : 2 268 kb/s
Width : 720 pixels
Height : 576 pixels
Display aspect ratio : 4:3
Frame rate : 25.000 FPS
Standard : PAL
Color space : YUV
Chroma subsampling : 4:2:0
Bit depth : 8 bits
Scan type : MBAFF
Scan type, store method : Interleaved fields
Scan order : Top Field First
Bits/(Pixel*Frame) : 0.219
Stream size : 435 MiB (85%)
Color range : Limited
Color primaries : BT.601 PAL
Transfer characteristics : BT.470 System B, BT.470 System G
Matrix coefficients : BT.601

Audio
ID : 514 (0x202)
Menu ID : 1 (0x1)
Format : MPEG Audio
Format version : Version 1
Format profile : Layer 2
Codec ID : 3
Duration : 26 min
Bit rate mode : Constant
Bit rate : 256 kb/s
Channel(s) : 2 channels
Sampling rate : 48.0 kHz
Compression mode : Lossy
Stream size : 49.1 MiB (10%)
Language : English








_________________
Проголосуй за трекер Открытый торрент трекер - RUS-MEDIA.ORG

Проголосуй Открытый торрент трекер - RUS-MEDIA.ORG


Вернуться к началу
 Профиль Отправить личное сообщение  
 
   Похожие торренты   Автор   Торрент   Размер 
В этой теме нет новых непрочитанных сообщений. Нарисовавшие смерть. От Освенцима до Нойенгамме (Юлия Герра) [2012, документальный, исторический, TVRip]

salma3

0 | 4

574.82 МБ

В этой теме нет новых непрочитанных сообщений. Хуртова Катюша (2015) CamRip

Dievas

4 | 0

142.06 МБ

В этой теме нет новых непрочитанных сообщений. Космос: Один голос в космической фуге [Эпизод 2] / Cosmos: One Voice in the Cosmic Fugue (Карл Саган) [1980, документальный, научно-популярный, познавательный, DVDRip]

salma3

0 | 4

929.81 МБ

В этой теме нет новых непрочитанных сообщений. Парад Победы. Москва. Красная площадь [Документальный, военный парад, 2017] HDTVRip

salma3

327 | 49

780.89 МБ

В этой теме нет новых непрочитанных сообщений. Парад Победы. Москва. Красная площадь [Документальный, военный парад, 2018] HDTV 1080i

salma3

340 | 231

4.8 ГБ

В этой теме нет новых непрочитанных сообщений. Парад Победы. Москва. Красная площадь [Документальный, военный парад, 2017] HDTVRip 720p

salma3

171 | 9

1.48 ГБ

В этой теме нет новых непрочитанных сообщений. Голос [04х01-17] (Россия) [Музыка, концерт, 2015] HDTVRip

Dracon

141 | 1200

30.27 ГБ


Начать новую тему Ответить на тему  [ 1 сообщение ] 




Для Мосгорсуда, Роскомнадзора и рекламодателей:: mosgorsud-torrent[собачка]yandex.ru
cron