Торрент файл
скачать торрент магнет ссылка Добавлен: 03 сен 2014, 21:02
Размер: 400.09 МБ
Сидеров: 0
Личеров: 3
Автор

СообщениеДобавлено: 03 сен 2014, 21:02 

Не в сети
Дата регистрации:
27 апр 2014, 21:05
Спасибо: 11 / 0
Сообщения: 65
Пленные америкосы: позорные детали ("Война Харта") Меняйлов

Перевод: Не требуется, cубтитры: отсутствуют
Формат: WEBRip, AVI, H264, MP3
Страна: Россия
Режиссер: Алексей Меняйлов
Жанр: Фильм о фильме
Продолжительность: 00:41:43
Год выпуска: 2013

Описание: Брюс Уиллис удивил глубиной созданного им образа. Тем более, что замес исходной ситуации - в одном концлагере и русские, и американцы - позволяет заглянуть в прежде сокрытое.

Видео: 720*576 (4:3), 25 fps, MPEG-2, 3427 Kbps, 0.329 bit/pixe
Аудио: 44,1 KHz, MPEG-1 Layer 2, Stereo, ~ 224 Kbps

Общее
Формат : AVI
Формат/Информация : Audio Video Interleave
Размер файла : 400 Мбайт
Продолжительность : 41 м.
Режим общего битрейта : Постоянный
Общий поток : 1340 Кбит/сек

Видео
Идентификатор : 0
Формат : AVC
Формат/Информация : Advanced Video Codec
Профиль формата : [email protected]
Параметр CABAC формата : Нет
Параметр ReFrames формата : 1 кадр
Параметр GOP формата : M=1, N=12
Идентификатор кодека : H264
Продолжительность : 41 м.
Вид битрейта : Постоянный
Битрейт : 1200 Кбит/сек
Ширина : 720 пикселей
Высота : 576 пикселей
Соотношение сторон : 16:9
Соотношение сторон в оригинале : 16:9
Частота кадров : 25,000 кадров/сек
Стандарт вещания : PAL
Цветовое пространство : YUV
Субдискретизация насыщенности : 4:2:0
Битовая глубина : 8 бит
Тип развёртки : Прогрессивная
Бит/(Пиксели*Кадры) : 0.116
Размер потока : 358 Мбайт (90%)

Аудио
Идентификатор : 1
Формат : MPEG Audio
Версия формата : Version 1
Профиль формата : Layer 3
Режим : Joint stereo
Идентификатор кодека : 55
Идентификатор кодека/Подсказка : MP3
Продолжительность : 41 м.
Вид битрейта : Постоянный
Битрейт : 128 Кбит/сек
Каналы : 2 канала
Частота : 44,1 КГц
Метод сжатия : С потерями
Размер потока : 38,2 Мбайт (10%)
Выравнивание : Соединение по промежуткам
Продолжительность промежутка : 26 мс. (0,65 видеокадр)
Библиотека кодирования : LAME3.98





Вернуться к началу
 Профиль Отправить личное сообщение  
 
   Похожие торренты   Автор   Торрент   Размер 
В этой теме нет новых непрочитанных сообщений. Почему немцы не переименовали Сталино в Донецк? (Алексей Меняйлов) [2013, Война, история, самиздат, WEBRip]

vairgin

51 | 15

45.58 МБ

В этой теме нет новых непрочитанных сообщений. Секреты успеха от лучших советских актеров (Алексей Меняйлов) [2012, Война, психология, самиздат, WEBRip]

vairgin

17 | 7

128.58 МБ

В этой теме нет новых непрочитанных сообщений. Война Харта / Hart's War [драма, военный, 2002] BDRip 720p, Mvo

salma3

4 | 1

7.53 ГБ

В этой теме нет новых непрочитанных сообщений. Война Харта / Hart's War [драма, военный, 2002] BDRip 1080p, Mvo

salma3

11 | 8

13.08 ГБ

В этой теме нет новых непрочитанных сообщений. Любовные повадки женщин (Алексей Меняйлов) [2013, мелодрама, детектив, приключения, WEBRip]

vairgin

47 | 9

232.9 МБ

В этой теме нет новых непрочитанных сообщений. Детали механизма / Moving Parts [боевик, триллер, драма, 2017] WEBRip, Dvo

salma3

65 | 36

1.26 ГБ

В этой теме нет новых непрочитанных сообщений. Создавая Изумрудный город [Фильм о фильме] / Oz Reimagined: The Making of Emerald City (Документальный, 2017) HDTVRip AVC от R.G. Resident

marya111

25 | 4

550.49 МБ


Начать новую тему Ответить на тему  [ 1 сообщение ] 




Для Мосгорсуда, Роскомнадзора и рекламодателей:: mosgorsud-torrent[собачка]yandex.ru
cron