Торрент файл
скачать торрент магнет ссылка Добавлен: 09 июл 2014, 21:02
Размер: 904.93 МБ
Сидеров: 3
Личеров: 3
Автор

СообщениеДобавлено: 09 июл 2014, 21:02 

Не в сети
Дата регистрации:
27 апр 2014, 21:05
Спасибо: 11 / 0
Сообщения: 65
Как правильно допрашивать перед расстрелом (Алексей Меняйлов)

Перевод: Не требуется, cубтитры: отсутствуют
Формат: HDRip, AVI, XviD, MP3
Страна: Россия
Режиссер: Алексей Меняйлов
Жанр: военный, драма
Продолжительность: 01:03:29
Год выпуска: 2014

Описание: Вода - это не просто так. Вода - это стихия, место обитания почивших Героев, ожидающих своего часа вернуться. Понимание сущности стихии воды объясняет некоторые странности в поведении странников (путников, скитальцев). Но первый шаг в понимании стихии воды - это обретение способности разобраться в двух технологиях допросов перед расстрелом, само собой, противоположных.

Видео: 1280x720 (1.78:1), 50 fps, XviD MPEG-4 ~1659 kbps avg, 0.04 bit/pixel
Аудио: 48 kHz, MPEG Layer 3, 2 ch, ~320.00 kbps avg

Общее
Формат : AVI
Формат/Информация : Audio Video Interleave
Размер файла : 905 Мбайт
Продолжительность : 1 ч. 3 м.
Общий поток : 1993 Кбит/сек

Видео
Идентификатор : 0
Формат : MPEG-4 Visual
Профиль формата : Advanced [email protected]
Параметр BVOP формата : 2
Параметр QPel формата : Нет
Параметр GMC формата : Без точки перехода
Параметр матрицы формата : Default (H.263)
Режим смешивания : Сжатый битовый поток
Идентификатор кодека : XVID
Идентификатор кодека/Подсказка : XviD
Продолжительность : 1 ч. 3 м.
Битрейт : 1659 Кбит/сек
Ширина : 1280 пикселей
Высота : 720 пикселей
Соотношение сторон : 16:9
Частота кадров : 50,000 кадров/сек
Цветовое пространство : YUV
Субдискретизация насыщенности : 4:2:0
Битовая глубина : 8 бит
Тип развёртки : Прогрессивная
Метод сжатия : С потерями
Бит/(Пиксели*Кадры) : 0.036
Размер потока : 753 Мбайт (83%)
Библиотека кодирования : XviD 64

Аудио
Идентификатор : 1
Формат : MPEG Audio
Версия формата : Version 1
Профиль формата : Layer 3
Режим : Joint stereo
Идентификатор кодека : 55
Идентификатор кодека/Подсказка : MP3
Продолжительность : 1 ч. 3 м.
Вид битрейта : Постоянный
Битрейт : 320 Кбит/сек
Каналы : 2 канала
Частота : 48,0 КГц
Метод сжатия : С потерями
Размер потока : 145 Мбайт (16%)
Выравнивание : Соединение по промежуткам
Продолжительность промежутка : 300 мс. (15,00 видеокадров)





Вернуться к началу
 Профиль Отправить личное сообщение  
 
   Похожие торренты   Автор   Торрент   Размер 
В этой теме нет новых непрочитанных сообщений. Малыш / Little Boy (Алехандро Гомес Монтеверде) [драма, комедия, военный, 2014] HDRip, avo

Dracon

211 | 12

1.36 ГБ

В этой теме нет новых непрочитанных сообщений. Каджаки: Правдивая история / Kajaki (Пол Катис) [триллер, драма, приключения, военный, 2014] HDRip [Lucky Strike]

Dracon

1450 | 53

1.46 ГБ

В этой теме нет новых непрочитанных сообщений. Каджаки: Правдивая история / Kajaki (Пол Катис) [триллер, драма, приключения, военный, 2014] HDRip [Lucky Strike]

Dracon

211 | 5

2.05 ГБ

В этой теме нет новых непрочитанных сообщений. Сектор 4 / Sector 4 (Оливье Грюнер) [Боевик, военный, 2014] HDRip, Mvo

Dracon

244 | 12

1.46 ГБ

В этой теме нет новых непрочитанных сообщений. Правильно понял очаровательную подружку / Layla Sin Wants Hard Sex (2017) SiteRip

salma3

37 | 4

249.06 МБ

В этой теме нет новых непрочитанных сообщений. Без границ / Borderless [Драма, военный, 2014] HDTVRip, Avo

salma3

29 | 12

620.89 МБ

В этой теме нет новых непрочитанных сообщений. По лезвию бритвы (1-8 серии из 8) [драма, военный, 2014] WEB-DL-720p

salma3

211 | 95

9.95 ГБ


Начать новую тему Ответить на тему  [ 1 сообщение ] 




Для Мосгорсуда, Роскомнадзора и рекламодателей:: mosgorsud-torrent[собачка]yandex.ru
cron