Торрент файл
скачать торрент магнет ссылка Добавлен: 13 мар 2012, 01:03
Размер: 653.84 МБ
Сидеров: 11
Личеров: 8
Автор

СообщениеДобавлено: 13 мар 2012, 01:03 

Не в сети
Супермодератор
Аватара пользователя
Дата регистрации:
22 май 2010, 11:03
Возраст: 33
Спасибо: 7741 / 13
Сообщения: 49837
Вторая Мировая - Америка сражается (Фильм 12-й) / Combat America


Перевод: Профессиональный (одноголосый), cубтитры: отсутствуют
Формат: DVDRip, AVI, DivX, MP3
Страна: США
Режиссер: Кларк Гейбл
Жанр: документальный
Продолжительность: 01:01:46
Год выпуска: 1943

Описание: В центре этого фильма повседневная жизнь американской авиабазы в Англии. "Завязка" фильма начинается с того, что начальник штаба американских ВВС поручает сделать фильм о 351-ой эскадрилье бомбардировщиков. Мы видим настроение членов эскадрильи во время их перелета в Великобританию, когда они бросают свой последний взгляд на Америку. После того, как их самолеты достигают Англии, они размещаются на базе ВВС и пытаются приспособиться к местным обычаям. Боевые действия в фильме представлены глазами члена экипажа самолета, от наблюдений за действиями пилотов при взлете и в дальнейшем полете, выполнения ими боевой задачи, до момента их возвращения на базу, когда весь наземный персонал с тревогой считает каждый возвращающийся самолет, чтобы удостовериться, что все целы, или, в противном случае, понять какой экипаж не вернулся. Ход боевых действий эскадрильи отмечен доской на стене, на которой нанесены названия атакованных целей, с последующим добавлением новых и с рисунками свастики около них, указывающих на количество сбитых вражеских самолетов. В конце фильма есть интересные кадры двух побед стрелков бомбардировщиков над истребителями ME 109, снятые во время налета на оккупированную нацистами Европу.

Видео: 720x544 (1.32:1), 23.976 fps, DivX Codec 5.x or 6.x ~1307 kbps avg, 0.14 bit/pixel
Аудио: 44.100 kHz, MPEG Layer 3, 2 ch, ~160.00 kbps avg

Доп. информация:
Фильм 1 "Атака в Тихом океане"
Фильм 2 "Битва за Новую Британию"
Фильм 3 "Направление Токио"
Фильм 4 "Битва за Россию"
Фильм 5 "Прелюдия к войне"
Фильм 6 "Разделить и победить"
Фильм 7 "Нападение нацистов"
Фильм 8 "Битва за Британию"
Фильм 9 "Победа в Тунисе"
Фильм 10 "Битва за Китай"
Фильм 11 "К берегам Иво Джимы. Это Гуадалканал"

General
Complete name: E:\torrents\amerika_srazhaetsya_[tfile.ru].avi
Format: AVI
Format/Info: Audio Video Interleave
File size: 654 MiB
Duration: 1h 1mn
Overall bit rate: 1 480 Kbps
Writing library: MPlayer

Video
ID: 0
Format: MPEG-4 Visual
Format profile: [email protected]
Format settings, BVOP: No
Format settings, QPel: No
Format settings, GMC: No warppoints
Format settings, Matrix: Default (H.263)
Codec ID: DX50
Codec ID/Hint: DivX 5
Duration: 1h 1mn
Bit rate: 1 308 Kbps
Width: 720 pixels
Height: 544 pixels
Display aspect ratio: 4:3
Frame rate: 23.976 fps
Color space: YUV
Chroma subsampling: 4:2:0
Bit depth: 8 bits
Scan type: Interlaced
Scan order: Top Field First
Compression mode: Lossy
Bits/(Pixel*Frame): 0.139
Stream size: 578 MiB (88%)
Writing library: Lavc51.44.0

Audio
ID: 1
Format: MPEG Audio
Format version: Version 1
Format profile: Layer 3
Mode: Joint stereo
Mode extension: MS Stereo
Codec ID: 55
Codec ID/Hint: MP3
Duration: 1h 1mn
Bit rate mode: Constant
Bit rate: 160 Kbps
Channel(s): 2 channels
Sampling rate: 44.1 KHz
Compression mode: Lossy
Stream size: 70.7 MiB (11%)
Alignment: Aligned on interleaves
Interleave, duration: 26 ms (0.63 video frame)
Interleave, preload duration: 809 ms








Поделиться:



Вернуться к началу
 Профиль Отправить личное сообщение  
 
   Похожие торренты   Автор   Торрент   Размер 
В этой теме нет новых непрочитанных сообщений. BBC: Вторая мировая война. За закрытыми дверьми (6 серий из 6) / World War Two - Behind Closed Doors (Лоуренс Рис, Эндрю Уильямс) [2008, документальный, военный, DVDRip] VO

salma3

0 | 5

4.99 ГБ

В этой теме нет новых непрочитанных сообщений. Люди 1941 года. Отстоявшим Родину посвящается (Владимир Тумаев, Лидия Тумаева, Игорь Хуциев) [2001, вторая мировая война, TVRip]

salma3

0 | 3

541.62 МБ

В этой теме нет новых непрочитанных сообщений. Первая мировая война / The Great War [01-03 из 3] [Документальный, война, история, ] ] WEB-DLRip 720p, Mvo[Кравец]

salma3

133 | 44

7.03 ГБ

В этой теме нет новых непрочитанных сообщений. Америка, Америка / America America [Драма, мелодрама, 1963] WEB-DLRip 720p, Avo

salma3

0 | 0

9.29 ГБ

В этой теме нет новых непрочитанных сообщений. Эйр Америка / Air America [боевик, комедия, 1990] BDRip, Mvo

salma3

50 | 8

1.46 ГБ

В этой теме нет новых непрочитанных сообщений. Эйр Америка / Air America [Приключения, комедия, боевик, 1990] HDRip-AVC, Mvo

salma3

76 | 11

746.48 МБ

В этой теме нет новых непрочитанных сообщений. Госпожа Америка / Mistress America [Комедия, 2015] HDRip, Mvo [iTunes]

Nickolas3435

302 | 12

1.37 ГБ


Начать новую тему Ответить на тему  [ 1 сообщение ] 




Для Мосгорсуда, Роскомнадзора и рекламодателей:: mosgorsud-torrent[собачка]yandex.ru
cron