Торрент файл
скачать торрент магнет ссылка Добавлен: 07 дек 2011, 17:24
Размер: 529.36 МБ
Сидеров: 12
Личеров: 10
Автор

СообщениеДобавлено: 07 дек 2011, 17:24 

Не в сети
Супермодератор
Аватара пользователя
Дата регистрации:
22 май 2010, 11:03
Возраст: 33
Спасибо: 7730 / 13
Сообщения: 49846
Мегазаводы: Харлей-Дэвидсон / Megafactories: Harley-Davidson


Перевод: Профессиональный (одноголосый),русский, cубтитры: отсутствуют
Формат: HDTVRip, MKV, H.264, MP3
Страна: США
Жанр: документальный
Продолжительность: 00:47:39
Год выпуска: 2006
Описание: Выпуск передачи посвящен сборке самого быстрого мотоцикла Harley Davidson,а именно марке V-Rod на мегазаводе Harley Davidson.

Длинный, низкий, обтекаемый - таков первый Харлей с жидкостным охлаждением, модель V-Rod.Харлей-Дэвидсон называет свой двигатель “Революция” (Revolution) - и это отнюдь не ловкий рекламный трюк. Фактически, это первый принципиально новый двигатель фирмы Motor Company со времени появления прототипа V-твин еще в 1908 году.

Двигатель разрабатывался совместно с компанией Porsche на основе хорошо себя зарекомендовавшей гоночной программы VR1000 Superbike. Не удивительно, что в результате получился мотор с высокотехнологичными характеристиками.

Мотор установлен на такое шасси, которое не похоже ни на один из Харлеев, которые выпускала фирма. У рамы обтекаемый алюминиевый периметр с хромированно-анодированным покрытием, на который не установлено почти никаких декоров. Модель существенно отличается от всех Харлеев и их клонов, которые заполонили рынок после выхода фильма “Беспечный ездок”. Можно даже сказать, что V-Rod это карикатура на круизер будущего.

Модель настолько идет вразрез со сложившимся представлением о том, что представляет собою Харлеи, что наиболее ревностные фанаты Мотор Компани заявили, что “такое” они покупать не будут. Более того, достоверно известно, что, по крайней мере, один из Харлей-клубов США объявил, что не будет принимать в свои ряды владельцев с мотоциклами V-Rod.

Видео: 1280x720 (16:9), 25.000 fps, AVC(х264), , ~ 1394 kbps avg, 0.061 bit/pixel
Аудио: 48 kHz, MPEG Layer 3, 2 ch, ~128.00 kbps avg

General
Complete name: D:\Новая папка\megafactories_harley_davidson[tfile.ru].mkv
Format: Matroska
File size: 529 MiB
Duration: 47mn 39s
Overall bit rate: 1 553 Kbps
Writing application: Lavf52.66.0
Writing library: Lavf52.66.0

Video
ID: 1
Format: AVC
Format/Info: Advanced Video Codec
Format profile:
Format settings, CABAC: Yes
Format settings, ReFrames: 3 frames
Muxing mode: Container [email protected]
Codec ID: V_MPEG4/ISO/AVC
Duration: 47mn 39s
Bit rate: 1 394 Kbps
Width: 1 280 pixels
Height: 720 pixels
Display aspect ratio: 16:9
Frame rate mode: Variable
Frame rate: 25.000 fps
Resolution: 24 bits
Colorimetry: 4:2:0
Scan type: Progressive
Bits/(Pixel*Frame): 0.061
Stream size: 475 MiB (90%)
Writing library: x264 core 96
Encoding settings: cabac=1 / ref=3 / deblock=1:0:0 / analyse=0x3:0x133 / me=hex / subme=7 / psy=1 / psy_rd=1.00:0.00 / mixed_ref=1 / me_range=16 / chroma_me=1 / trellis=1 / 8x8dct=1 / cqm=0 / deadzone=21,11 / fast_pskip=1 / chroma_qp_offset=-2 / threads=6 / sliced_threads=0 / nr=0 / decimate=1 / interlaced=0 / constrained_intra=0 / bframes=3 / b_pyramid=1 / b_adapt=2 / b_bias=0 / direct=3 / weightb=1 / weightp=2 / keyint=250 / keyint_min=25 / scenecut=40 / intra_refresh=0 / rc_lookahead=40 / rc=crf / mbtree=1 / crf=21.0 / qcomp=0.60 / qpmin=10 / qpmax=51 / qpstep=4 / vbv_maxrate=1800 / vbv_bufsize=1835 / crf_max=30.0 / ip_ratio=1.40 / aq=1:1.00 / nal_hrd=none

Audio
ID: 2
Format: MPEG Audio
Format version: Version 1
Format profile: Layer 3
Format_Settings_Mode: Joint stereo / MS Stereo
Codec ID: A_MPEG/L3
Codec ID/Hint: MP3
Duration: 47mn 39s
Bit rate mode: Constant
Bit rate: 128 Kbps
Channel(s): 2 channels
Sampling rate: 48.0 KHz
Resolution: 16 bits
Stream size: 43.6 MiB (8%)
Language: Russian









Поделиться:



Вернуться к началу
 Профиль Отправить личное сообщение  
 
   Похожие торренты   Автор   Торрент   Размер 
В этой теме нет новых непрочитанных сообщений. Харлей Дэвидсон и Ковбой Мальборо / Harley Davidson And The Marlboro Man [боевик, триллер, драма, 1991] BDRip HEVC 1080p, Mvo+Avo

salma3

42 | 1

5.7 ГБ

В этой теме нет новых непрочитанных сообщений. Суперсооружения Третьего рейха (1 сезон, 1-6 серии из 6) / National Geographic: Nazi megastructure (National Geographic) [2013, документальный, HDTVRip] VO

salma3

0 | 0

3.5 ГБ

В этой теме нет новых непрочитанных сообщений. National Geographic: Жизнь в космосе / National Geographic: Living in Space (National Geographic Channels) [2014, документальный, SATRip] AVO

salma3

0 | 1

580.11 МБ

В этой теме нет новых непрочитанных сообщений. National Geographic: Тайное оружие Гитлера /National Geographic: Hitler's (Nazi) Secret Weapon (Жан-Кристоф Карон) [2010, документальный, HDTVRip] DUB

salma3

2 | 2

701.47 МБ

В этой теме нет новых непрочитанных сообщений. National Geographic: Путешествие к Европе / National Geographic: Journey To Europe (Марк Зануси) [2011, документальный, SATRip] VO

salma3

0 | 1

529.85 МБ

В этой теме нет новых непрочитанных сообщений. National Geographic. НЛО над Европой / National Geographic. The UFO over Europe (Стюарт Картер) [2012, документальный, научно-познавательный, уфология, IPTVRip] VO

salma3

0 | 1

641.93 МБ

В этой теме нет новых непрочитанных сообщений. National Geographic: Путешествие на край Вселенной / National Geographic: Journey to the Edge of the Universe (Явар Аббас) [2008, документальный, космос, BDRip] DUB

salma3

6 | 1

1.46 ГБ


Начать новую тему Ответить на тему  [ 1 сообщение ] 




Для Мосгорсуда, Роскомнадзора и рекламодателей:: mosgorsud-torrent[собачка]yandex.ru
cron