Торрент файл
скачать торрент магнет ссылка Добавлен: 07 дек 2011, 17:24
Размер: 456.82 МБ
Сидеров: 9
Личеров: 9
Автор

СообщениеДобавлено: 07 дек 2011, 17:24 

Не в сети
Супермодератор
Аватара пользователя
Дата регистрации:
22 май 2010, 11:03
Возраст: 33
Спасибо: 7741 / 13
Сообщения: 49837
Суперсооружения: Панамский канал / Megastructures: Panama Canal


Перевод: Профессиональный (одноголосый),русский, cубтитры: отсутствуют
Формат: HDTVRip, MKV, H.264, MP3
Страна: Панама
Режиссер: National Geographic
Жанр: документальный
Продолжительность: 00:46:58
Год выпуска: 2006
Описание: Сегодня каналу предстоит испытание в виде пропуска двух суперкораблей,а для этого нужно провести такими же супермашинами работы по расширению канала,установке новых ворот на шлюзе,сможет ли канал выдержать все это и что будет с каналом дальше.

Панамский канал-это суперсооружение 19 века,строительство которго стало одним из крупнейших и сложнейших строительных проектов, осуществлённых человечеством. Панамский канал оказал неоценимое влияние на развитие судоходства и экономики в целом в Западном полушарии и на всей Земле, что обусловило его чрезвычайно высокое геополитическое значение. Благодаря Панамскому каналу морской путь из Нью-Йорка в Сан-Франциско сократился с 22,5 тыс. км до 9,5 тыс. км.

Канал пропускает через себя суда самых разных типов — от частных яхт до огромных танкеров и контейнеровозов. Максимальный размер судна, которое может пройти по Панамскому каналу, стал фактически стандартом в судостроении, получив название Panamax.

Видео: 1280x720 (16:9), 25.000 fps, AVC(х264), , ~ 1 205 Kbps, 0.052 bit/pixel
Аудио: 48 kHz, MPEG Layer 3, 2 ch, ~128.00 kbps avg
General
Complete name: D:\Документальное видео\megastructures_panamskii_kanal_[tfile.ru].mkv
Format: Matroska
File size: 457 MiB
Duration: 46mn 58s
Overall bit rate: 1 360 Kbps
Encoded date: UTC 2011-10-24 10:28:11
Writing application: mkvmerge v4.0.0 ('The Stars were mine') сборка от Jun6 2010 16:18:42
Writing library: libebml v1.0.0 + libmatroska v1.0.0

Video
ID: 1
Format: AVC
Format/Info: Advanced Video Codec
Format profile:
Format settings, CABAC: Yes
Format settings, ReFrames: 3 frames
Muxing mode: Container [email protected]
Codec ID: V_MPEG4/ISO/AVC
Duration: 46mn 58s
Bit rate: 1 205 Kbps
Width: 1 280 pixels
Height: 720 pixels
Display aspect ratio: 16:9
Frame rate mode: Variable
Frame rate: 25.000 fps
Resolution: 24 bits
Colorimetry: 4:2:0
Scan type: Progressive
Bits/(Pixel*Frame): 0.052
Stream size: 405 MiB (89%)
Writing library: x264 core 96
Encoding settings: cabac=1 / ref=3 / deblock=1:0:0 / analyse=0x3:0x133 / me=hex / subme=7 / psy=1 / psy_rd=1.00:0.00 / mixed_ref=1 / me_range=16 / chroma_me=1 / trellis=1 / 8x8dct=1 / cqm=0 / deadzone=21,11 / fast_pskip=1 / chroma_qp_offset=-2 / threads=6 / sliced_threads=0 / nr=0 / decimate=1 / interlaced=0 / constrained_intra=0 / bframes=3 / b_pyramid=1 / b_adapt=2 / b_bias=0 / direct=3 / weightb=1 / weightp=2 / keyint=250 / keyint_min=25 / scenecut=40 / intra_refresh=0 / rc_lookahead=40 / rc=crf / mbtree=1 / crf=21.0 / qcomp=0.60 / qpmin=10 / qpmax=51 / qpstep=4 / vbv_maxrate=1800 / vbv_bufsize=1835 / crf_max=30.0 / ip_ratio=1.40 / aq=1:1.00 / nal_hrd=none

Audio
ID: 2
Format: MPEG Audio
Format version: Version 1
Format profile: Layer 3
Format_Settings_Mode: Joint stereo / MS Stereo
Codec ID: A_MPEG/L3
Codec ID/Hint: MP3
Duration: 46mn 58s
Bit rate mode: Constant
Bit rate: 128 Kbps
Channel(s): 2 channels
Sampling rate: 48.0 KHz
Resolution: 16 bits
Stream size: 43.0 MiB (9%)
Language: Russian













Поделиться:



Вернуться к началу
 Профиль Отправить личное сообщение  
 
   Похожие торренты   Автор   Торрент   Размер 
В этой теме нет новых непрочитанных сообщений. Суперсооружения Третьего рейха (1 сезон, 1-6 серии из 6) / National Geographic: Nazi megastructure (National Geographic) [2013, документальный, HDTVRip] VO

salma3

3 | 1

3.5 ГБ

В этой теме нет новых непрочитанных сообщений. National Geographic: Жизнь в космосе / National Geographic: Living in Space (National Geographic Channels) [2014, документальный, SATRip] AVO

salma3

0 | 1

580.11 МБ

В этой теме нет новых непрочитанных сообщений. National Geographic: Тайное оружие Гитлера /National Geographic: Hitler's (Nazi) Secret Weapon (Жан-Кристоф Карон) [2010, документальный, HDTVRip] DUB

salma3

2 | 2

701.47 МБ

В этой теме нет новых непрочитанных сообщений. National Geographic: Путешествие к Европе / National Geographic: Journey To Europe (Марк Зануси) [2011, документальный, SATRip] VO

salma3

0 | 1

529.85 МБ

В этой теме нет новых непрочитанных сообщений. National Geographic. НЛО над Европой / National Geographic. The UFO over Europe (Стюарт Картер) [2012, документальный, научно-познавательный, уфология, IPTVRip] VO

salma3

0 | 1

641.93 МБ

В этой теме нет новых непрочитанных сообщений. National Geographic: Путешествие на край Вселенной / National Geographic: Journey to the Edge of the Universe (Явар Аббас) [2008, документальный, космос, BDRip] DUB

salma3

6 | 1

1.46 ГБ

В этой теме нет новых непрочитанных сообщений. National Geographic: Удивительные обитатели Тайваня / National Geographic: Taiwan's Amazing Creatures [2011, Документальный, флора, фауна, путешествия, SATRip] DUB

salma3

0 | 2

568.3 МБ


Начать новую тему Ответить на тему  [ 1 сообщение ] 




Для Мосгорсуда, Роскомнадзора и рекламодателей:: mosgorsud-torrent[собачка]yandex.ru
cron