Торрент файл
скачать торрент магнет ссылка Добавлен: 07 дек 2011, 17:23
Размер: 699.78 МБ
Сидеров: 6
Личеров: 6
Автор

СообщениеДобавлено: 07 дек 2011, 17:23 

Не в сети
Супермодератор
Аватара пользователя
Дата регистрации:
22 май 2010, 11:03
Возраст: 33
Спасибо: 7730 / 13
Сообщения: 49846
Величайшие сражения второй мировой войны [2 Серии из 2] / Greatest military clashes


Перевод: Профессиональный (двухголосый), cубтитры: отсутствуют
Формат: DVDRip, AVI, DivX, AC3
Страна: США
Режиссер: Сид Беннетт
Жанр: документальный
Продолжительность: 00:49:30
Год выпуска: 2003

Описание: Летом 1940 года Нацистская Германия уже контролировала большую часть Европы. Но были страны, которые не сгибались под натиском фашистского гнета. В это время, в строжайшей, секретной обстановке, Гитлер начинает готовить нападение на Великобританию. Но англичане, располагая данными разведки, в противовес вышколенным войскам Вермахта, бросили вперед новейшую и самую мощную технику…
Фильм состоит из двух частей - "Sherman Tank versus Tiger" (танк "Шерман" против "Тигра") и "Spitfire versus Messerschmitt ("Спитфайр" против "Мессершмита"). Нарезка из хроники, сравнительный анализ техники, интервью с ветеранами с обеих сторон, современные реконструкции боёв.


Видео: 704x384 (1.83:1), 25 fps, DivX Codec 6.2.2 ~1776 kbps avg, 0.26 bit/pixel
Аудио: 48 kHz, AC3 Dolby Digital, 2/0 (L,R) Surround Encoded ch, ~192 kbps

General
Complete name: E:\torrents\greatest_military_clashes_[tfile.ru].avi
Format: AVI
Format/Info: Audio Video Interleave
File size: 700 MiB
Duration: 49mn 30s
Overall bit rate: 1 976 Kbps
Writing application: VirtualDubMod 1.5.10.2 (build 2540/release)
Writing library: VirtualDubMod build 2540/release

Video
ID: 0
Format: MPEG-4 Visual
Format settings, BVOP: 3
Format settings, QPel: No
Format settings, GMC: No warppoints
Format settings, Matrix: Default (H.263)
Muxing mode: Packed bitstream
Codec ID: DX50
Codec ID/Hint: DivX 5
Duration: 49mn 30s
Bit rate: 1 776 Kbps
Width: 704 pixels
Height: 384 pixels
Display aspect ratio: 16:9
Frame rate: 25.000 fps
Color space: YUV
Chroma subsampling: 4:2:0
Bit depth: 8 bits
Scan type: Progressive
Compression mode: Lossy
Bits/(Pixel*Frame): 0.263
Stream size: 629 MiB (90%)
Writing library: DivX 6.2.2 (UTC 2006-04-26)

Audio
ID: 1
Format: AC-3
Format/Info: Audio Coding 3
Format profile: Dolby Digital
Mode extension: CM (complete main)
Codec ID: 2000
Duration: 49mn 30s
Bit rate mode: Constant
Bit rate: 192 Kbps
Channel(s): 2 channels
Channel positions: Front: L R
Sampling rate: 48.0 KHz
Bit depth: 16 bits
Compression mode: Lossy
Stream size: 68.0 MiB (10%)
Alignment: Split accross interleaves
Interleave, duration: 64 ms (1.60 video frames)
Interleave, preload duration: 500 ms









Поделиться:



Вернуться к началу
 Профиль Отправить личное сообщение  
 
   Похожие торренты   Автор   Торрент   Размер 
В этой теме нет новых непрочитанных сообщений. Сражения Второй мировой войны. Курская битва (ТК RTG) [2012, документальный, HDTVRip]

salma3

3 | 3

742.91 МБ

В этой теме нет новых непрочитанных сообщений. Bad Girls Greatest Hits / Величайшие Хиты Плохих Девочек (Digital Playground) [2015., DVDRip]

max77777

5 | 0

2.96 ГБ

В этой теме нет новых непрочитанных сообщений. Великие боевые машины Второй Мировой: Бомбардировщики союзников / Great Fighting Machines of WW2 - Allied Bombers (Джонатан Мур) [1990, документальный, SATRip] VO

salma3

0 | 3

277.28 МБ

В этой теме нет новых непрочитанных сообщений. Расчет С-400 (Россия) [Документальный, Техника и Вооружение, 2015] WEBRip

Dracon

2 | 1

277.87 МБ

В этой теме нет новых непрочитанных сообщений. Гибель "Курска" - следственный эксперимент (Россия) [Документальный, Техника и Вооружение, Катастрофы, 2015] SATRip

Dracon

3 | 0

479.53 МБ

В этой теме нет новых непрочитанных сообщений. [MilfsLikeItBig.com / Brazzers.com] Olivia Austin (The MILF In The Military / 24.05.2017) [Big Tits, Big Tits Worship, Blonde, Femdom, MILF, Military, Uniform]

salma3

6 | 2

506.18 МБ

В этой теме нет новых непрочитанных сообщений. [MilfsLikeItBig.com / Brazzers.com] Olivia Austin (The MILF In The Military / 24.05.2017) [Big Tits, Big Tits Worship, Blonde, Femdom, MILF, Military, Uniform]

salma3

5 | 2

268.79 МБ


Начать новую тему Ответить на тему  [ 1 сообщение ] 




Для Мосгорсуда, Роскомнадзора и рекламодателей:: mosgorsud-torrent[собачка]yandex.ru
cron