Торрент файл
скачать торрент магнет ссылка Добавлен: 18 мар 2017, 05:04
Размер: 2.16 ГБ
Сидеров: 0
Личеров: 2
Автор

СообщениеДобавлено: 18 мар 2017, 05:04 

Не в сети
Супермодератор
Аватара пользователя
Дата регистрации:
15 фев 2012, 16:44
Возраст: 28
Спасибо: 7205 / 2147
Сообщения: 65433
Непобедимый воин [Сезон 3: 10 серий из 10] / Deadliest Warrior

Перевод: Профессиональный (одноголосый), cубтитры: отсутствуют
Формат: HDTVRip-AVC, MP4, H.264, AAC
Страна: США
Режиссер: SpikeTV
Жанр: документальный
Продолжительность: 10x ~ 00:40:00
Год выпуска: 2011

Описание: Авторы этой программы попытались честно и беспристрастно определить непобедимого воина всех времен и народов.
Вам предстоит впечатляющее знакомство с наиболее эффективными боевыми приемами как прошлого, так и настоящего. Вы познакомитесь с титулованными бойцами современности и опытными экспертами, которые приоткроют тайны различных видов боевых искусств. А беспристрастные специалисты с помощью новейших технологий и компьютерных программ оценят преимущества и недостатки оружия, средств защиты и тактики ведения боя.
Наглядные испытания и тесты соседствуют с историческим экскурсом и впечатляющими историческими реконструкциями. А в финале этого всестороннего и увлекательного исследования развернется виртуальная битва, которую смоделируют при помощи специальной программы, учитывающей данные всех тестов, свидетелями которых вы только что были.
Поверьте, заранее предсказать исход сражения практически невозможно, и порой его финал оказывается полной неожиданностью для всех, кто находится в студии.


Видео: 640x480 (4:3), 25 fps, MPEG-4 AVC(H.264)( ) ~ 600 kbps avg, 0.078 bit/pixel
Аудио: 44.1 KHz, AAC(LC), 2 ch, (Front: L R), 128.00 Kbps

General
Complete name : F:DowloadsDeadliest Warrior 3 сезон1. Джордж Вашингтон против Наполеона Бонапарта.mp4
Format : MPEG-4
Format profile : Base Media
Codec ID : isom
File size : 220 MiB
Duration : 41mn 24s
Overall bit rate : 743 Kbps
Writing application : Lavf52.40.0

Video
ID : 1
Format : AVC
Format/Info : Advanced Video Codec
Format profile :
Format settings, CABAC : Yes
Format settings, ReFrames : 3 frames
Codec ID : avc1
Codec ID/Info : Advanced Video Coding
Duration : 41mn 24s
Bit rate mode : Variable
Bit rate : 600 Kbps
Width : 640 pixels
Height : 480 pixels
Display aspect ratio : 4:3
Frame rate mode : Constant
Frame rate : 25.000 fps
Color space : YUV
Chroma subsampling : 4:2:0
Bit depth : 8 bits
Scan type : Progressive
Bits/(Pixel*Frame) : 0.078
Stream size : 180 MiB (82%)
Writing library : x264 core 79
Encoding settings : cabac=1 / ref=3 / deblock=1:0:0 / analyse=0x3:0x113 / me=hex / subme=7 / psy=1 / psy_rd=1.0:0.0 / mixed_ref=1 / me_range=16 / chroma_me=1 / trellis=1 / 8x8dct=1 / cqm=0 / deadzone=21,11 / chroma_qp_offset=-2 / threads=24 / nr=0 / decimate=1 / mbaff=0 / constrained_intra=0 / bframes=3 / b_pyramid=0 / b_adapt=1 / b_bias=0 / direct=1 / wpredb=32 / wpredp=2 / keyint=250 / keyint_min=25 / scenecut=40 / rc_lookahead=40 / rc=abr / mbtree=1 / bitrate=600 / ratetol=6.7 / qcomp=0.60 / qpmin=10 / qpmax=51 / qpstep=4 / ip_ratio=1.41 / aq=1:1.00
Language : Russian

Audio
ID : 2
Format : AAC
Format/Info : Advanced Audio Codec
Format profile : LC
Codec ID : 40
Duration : 41mn 24s
Bit rate mode : Variable
Bit rate : 128 Kbps
Channel(s) : 2 channels
Channel positions : Front: L R
Sampling rate : 44.1 KHz
Compression mode : Lossy
Stream size : 37.9 MiB (17%)
Language : Russian
1. Джордж Вашингтон против Наполеона Бонапарта
2. Жанна д'Арк против Вильгельма Завоевателя
3. Силы специальных операций КНДР против Американских Рейнджеров
4. Ганнибал против Чингисхана
5. Саддам Хусейн против Пол Пота
6. Теодор Рузвельт против Лоуренса Аравийского
7. Иван Грозный против Эрнана Кортеса
8. Неистовый Конь против Панчо Вилья
9. Французский Иностранный легион против Гуркхи
10. Вампиры против Зомби














_________________
Проголосуй за трекер Открытый торрент трекер - RUS-MEDIA.ORG

Проголосуй Открытый торрент трекер - RUS-MEDIA.ORG


Вернуться к началу
 Профиль Отправить личное сообщение  
 
   Похожие торренты   Автор   Торрент   Размер 
В этой теме нет новых непрочитанных сообщений. Железный воин / Стальной воин / Iron Warrior [фэнтези, боевик, драма, 1987] HDTV 1080i, Dvo [НТВ +]

salma3

47 | 38

3.72 ГБ

В этой теме нет новых непрочитанных сообщений. Воин / Warrior [драма, спорт, 2011] BDRip 720p, Mvo

salma3

78 | 28

6.22 ГБ

В этой теме нет новых непрочитанных сообщений. Воин / Warrior [Драма, спорт, 2011] BDRip 1080p, Mvo

salma3

0 | 0

11.7 ГБ

В этой теме нет новых непрочитанных сообщений. Субботний воин / Saturday's Warrior [мюзикл, 2016] HDRip, Mvo

salma3

16 | 15

2.05 ГБ

В этой теме нет новых непрочитанных сообщений. Субботний воин / Saturday's Warrior [мюзикл, 2016] HDRip, Mvo

salma3

72 | 32

1.37 ГБ

В этой теме нет новых непрочитанных сообщений. 13-й воин / The 13th Warrior [Боевик, Приключения, 1999] BDRip 1080p, Dub

salma3

33 | 10

7.82 ГБ

В этой теме нет новых непрочитанных сообщений. Смертоносный воин / Death Warrior [Боевик, драма, 2009] HDRip, Mvo+Dvo

salma3

195 | 23

1.45 ГБ


Начать новую тему Ответить на тему  [ 1 сообщение ] 




Для Мосгорсуда, Роскомнадзора и рекламодателей:: mosgorsud-torrent[собачка]yandex.ru
cron