Торрент файл
скачать торрент магнет ссылка Добавлен: 18 мар 2017, 05:04
Размер: 191.97 МБ
Сидеров: 0
Личеров: 1
Автор

СообщениеДобавлено: 18 мар 2017, 05:04 

Не в сети
Супермодератор
Аватара пользователя
Дата регистрации:
15 фев 2012, 16:44
Возраст: 28
Спасибо: 7205 / 2147
Сообщения: 65364
Эсминец 21 века / 21st Century Warship
Перевод: Профессиональный (одноголосый), cубтитры: отсутствуют
Формат: WEBRip, MPEG4, AVC, AAC
Страна: Великобритания
Жанр: документальный, военная техника, флот
Продолжительность: 00:51:26
Год выпуска: 2009
Описание:
На сегодняшний день королевский эсминец HMS Daring является самым дорогостоящим и совершенным военным кораблем в мире. Его постройка обошлась английской казне в один миллиард фунтов стерлингов, а его "крестной матерью" стала сама принцесса София, графиня Эссекская. Над созданным по технологии «Стелс» кораблем возвышается 36-метровый высокотехнологичный радар. Он - глаза и уши ракетного комплекса. Программа рассказывает о строительстве HMS Daring и испытаниях новых систем вооружения. Мы станем свидетелями торжественного спуска корабля на воду и проследим за военными учениями, во время которых условия на корабле максимально приближены к боевым.

Видео: 640x350 (1.85:1), 25 fps, MPEG-4 AVC ~440 kbps avg, 0.079 bit/pixel
Аудио: 44.1 kHz, ААС, 2 ch, Front: L R ~89.00 kbps avg

C:UsersJurijsDesktop5bcae5121d44.360.mp4
General
Complete name : C:UsersJurijsDesktop5bcae5121d44.360.mp4
Format : MPEG-4
Format profile : Base Media
Codec ID : isom
File size : 192 MiB
Duration : 51mn 26s
Overall bit rate mode : Variable
Overall bit rate : 522 Kbps
Writing application : Lavf52.40.0
Video #1
ID : 1
Format : AVC
Format/Info : Advanced Video Codec
Format profile :
Format settings, CABAC : No
Format settings, ReFrames : 1 frame
Codec ID : avc1
Codec ID/Info : Advanced Video Coding
Duration : 51mn 26s
Bit rate : 440 Kbps
Width : 640 pixels
Height : 350 pixels
Display aspect ratio : 1.85:1
Frame rate mode : Constant
Frame rate : 25.000 fps
Color space : YUV
Chroma subsampling : 4:2:0
Bit depth : 8 bits
Scan type : Progressive
Bits/(Pixel*Frame) : 0.079
Stream size : 161 MiB (84%)
Writing library : x264 core 79
Encoding settings : cabac=0 / ref=1 / deblock=1:0:0 / analyse=0x1:0x131 / me=tesa / subme=9 / psy=1 / psy_rd=1.0:0.0 / mixed_ref=0 / me_range=24 / chroma_me=1 / trellis=0 / 8x8dct=0 / cqm=0 / deadzone=21,11 / chroma_qp_offset=-2 / threads=24 / nr=0 / decimate=1 / mbaff=0 / constrained_intra=0 / bframes=0 / wpredp=0 / keyint=250 / keyint_min=25 / scenecut=40 / rc_lookahead=40 / rc=cbr / mbtree=1 / bitrate=440 / ratetol=9.1 / qcomp=0.60 / qpmin=10 / qpmax=51 / qpstep=4 / vbv_maxrate=10000 / vbv_bufsize=10000 / ip_ratio=1.41 / aq=1:1.00
Audio #2
ID : 2
Format : AAC
Format/Info : Advanced Audio Codec
Format profile : LC
Codec ID : 40
Duration : 51mn 26s
Bit rate mode : Variable
Bit rate : 89.3 Kbps
Channel(s) : 2 channels
Channel positions : Front: L R
Sampling rate : 44.1 KHz
Compression mode : Lossy
Stream size : 32.9 MiB (17%)








_________________
Проголосуй за трекер Открытый торрент трекер - RUS-MEDIA.ORG

Проголосуй Открытый торрент трекер - RUS-MEDIA.ORG


Вернуться к началу
 Профиль Отправить личное сообщение  
 
   Похожие торренты   Автор   Торрент   Размер 
В этой теме нет новых непрочитанных сообщений. Женщины ХХ века / 20th Century Women [драма, комедия, 2016] WEBDLRip, Mvo

salma3

206 | 29

1.37 ГБ

В этой теме нет новых непрочитанных сообщений. Женщины ХХ века / 20th Century Women [Драма, комедия, 2016] BDRip, Mvo [AlexFilm]

salma3

247 | 38

1.46 ГБ

В этой теме нет новых непрочитанных сообщений. Женщины ХХ века / 20th Century Women [драма, комедия, 2016] BDRip 720p, Mvo [iTunes]

salma3

150 | 78

6.5 ГБ

В этой теме нет новых непрочитанных сообщений. Морская сила России (1-6 серии из 6) (Людмила Назарук, Борис Мамлин) [2006 - 2009, документальный, флот, история, война, SATRip]

salma3

13 | 3

3.16 ГБ

В этой теме нет новых непрочитанных сообщений. Расчет С-400 (Россия) [Документальный, Техника и Вооружение, 2015] WEBRip

Dracon

2 | 1

277.87 МБ

В этой теме нет новых непрочитанных сообщений. Военная приемка [1-39] [документальный, 2015-2016] SATRip

Dracon

12 | 13

21.17 ГБ

В этой теме нет новых непрочитанных сообщений. Военная приемка [50-74 + За кадром] (Документальный, вооружение, 2016-2017) SATRip

marya111

47 | 107

14.02 ГБ


Начать новую тему Ответить на тему  [ 1 сообщение ] 




Для Мосгорсуда, Роскомнадзора и рекламодателей:: mosgorsud-torrent[собачка]yandex.ru
cron