Торрент файл
скачать торрент магнет ссылка Добавлен: 18 мар 2017, 05:04
Размер: 959.64 МБ
Сидеров: 1
Личеров: 1
Автор

СообщениеДобавлено: 18 мар 2017, 05:04 

Не в сети
Супермодератор
Аватара пользователя
Дата регистрации:
15 фев 2012, 16:44
Возраст: 28
Спасибо: 7284 / 2147
Сообщения: 70226
Русское оружие (5 выпусков)
Перевод: Не требуется, cубтитры: отсутствуют
Формат: WEBRip-AVC, MPEG-4, H.264, AAC
Страна: Россия
Режиссер: Россия 24
Жанр: документальный
Продолжительность: 5x ~00:20:00
Год выпуска: 2013

Описание: В данном цикле передач будет рассказано о новейших видов вооружения поступивших и только разрабатываемых для Российской армии. До 2020-го года Россия потратит на перевооружение 22 триллиона рублей.

Видео: 704x528 (1.33:1), 25 fps, AVC (H.264) ~1200 kbps avg, 0.129 bit/pixel
Аудио: 48.0 KHz, AAC, 2 (L,R) ch, 96.00 kbps avg
(тех. данные выпусков идентичны)

General
Complete name : F:DowloadsРусское оружие2013.04.17.mp4
Format : MPEG-4
Format profile : Base Media / Version 2
Codec ID : mp42
File size : 185 MiB
Duration : 19mn 55s
Overall bit rate : 1 299 Kbps
Encoded date : UTC 2013-04-17 17:10:36
Tagged date : UTC 2013-04-17 17:10:36

Video
ID : 1
Format : AVC
Format/Info : Advanced Video Codec
Format profile :
Format settings, CABAC : Yes
Format settings, ReFrames : 2 frames
Codec ID : avc1
Codec ID/Info : Advanced Video Coding
Duration : 19mn 55s
Bit rate mode : Constant
Bit rate : 1 200 Kbps
Width : 704 pixels
Height : 528 pixels
Display aspect ratio : 4:3
Frame rate mode : Constant
Frame rate : 25.000 fps
Color space : YUV
Chroma subsampling : 4:2:0
Bit depth : 8 bits
Scan type : Progressive
Bits/(Pixel*Frame) : 0.129
Stream size : 171 MiB (92%)
Language : English
Encoded date : UTC 2013-04-17 17:10:36
Tagged date : UTC 2013-04-17 17:10:36

Audio
ID : 2
Format : AAC
Format/Info : Advanced Audio Codec
Format profile : HE-AAC / LC
Codec ID : 40
Duration : 19mn 55s
Bit rate mode : Variable
Bit rate : 96.0 Kbps
Maximum bit rate : 130 Kbps
Channel(s) : 2 channels
Channel positions : Front: L R
Sampling rate : 48.0 KHz / 24.0 KHz
Compression mode : Lossy
Stream size : 13.5 MiB (7%)
Language : English
Encoded date : UTC 2013-04-17 17:10:36
Tagged date : UTC 2013-04-17 17:10:36

1.Билет в будущее или пропуск на свалку: какая судьба ждет российские перехватчики МиГ-31. Девять кругов оружейного ада: зачем каждая новая винтовка, пистолет или автомат должны проходить нечеловеческие испытания. Цветы для саперов: разминированием займется гигантский "одуванчик".

2.БТР умер, да здравствует БТР. Сергей Лясковский, выяснил, чем заменили восьмидесятый бронетранспортер на параде 9 мая 2013 года. Ил - на финишной прямой. Александр Софронов побывал на заключительном этапе летных испытаний новейшего военно-транспортного самолета. В рубрике "Без комментариев": подготовка российских пилотов к Параду Победы.

3.Американский "Патриот" или российский "Антей": какая зенитно-ракетная система встанет на вооружение ПВО Турции. Запчасти - ваши, вертолеты - наши: первый российско-итальянский авиационный завод. Неземные технологии: как и где создаются космические спутники. Гроза всего живого: испытания "Терминатора".

4.Как российской оборонной промышленности справиться дефицитом молодых кадров? Самолет вместо учебника: в МАИ готовят специалистов для авиационной промышленности страны. Высокоточное оружие: одна ракета – один танк. Уникальные кадры: дозаправка боевого самолета в воздухе.

5.Фавориту пора на пенсию: что может заменить легендарную С-300. Многомиллионные контракты, жесткая конкуренция: чем запомнился 50-й Парижский авиасалон в Ле Бурже. Зачем швейцарцы создали киберкота? Как рождаются черные дыры: завод, где собирают подводные лодки-невидимки.














_________________
Проголосуй за трекер Открытый торрент трекер - RUS-MEDIA.ORG

Проголосуй Открытый торрент трекер - RUS-MEDIA.ORG


Вернуться к началу
 Профиль Отправить личное сообщение  
 
   Похожие торренты   Автор   Торрент   Размер 
В этой теме нет новых непрочитанных сообщений. Странное дело: Тайное оружие Гитлера (Эфир от 22.03.2013) [2013, документальный, научно-популярный, история, SATRip]

salma3

3 | 2

563.35 МБ

В этой теме нет новых непрочитанных сообщений. Футбол. Лига Европы 2017-18. Плей-офф. 1/8 финала. ЦСКА (Россия), Зенит (Россия), Локомотив (Россия). Первые и ответные матчи. Обзор матчей (2018) WEBRip 720p

salma3

0 | 0

566.25 МБ

В этой теме нет новых непрочитанных сообщений. Владимир Путин на форуме ВТБ «Россия зовет!» (Россия) [Пленарная сессия, политика, 13.10.2015] WEBRip 720p

Dracon

0 | 3

1.61 ГБ

В этой теме нет новых непрочитанных сообщений. Sex Weapon Il Killer Perfetto... / Сексуальное Оружие: Безукоризненный Убийца... (J.F. Romagnoli, ATV Entertainment) [2010 г., Feature, Straight, DP, WebRip]

max77777

14 | 2

1.5 ГБ

В этой теме нет новых непрочитанных сообщений. Смертельное оружие / Lethal Weapon [01х01-01 из 13] [боевик, триллер, драма, криминал, 2016] WEBRip 1080p, Mvo [LostFilm]

marya111

0 | 0

3.93 ГБ

В этой теме нет новых непрочитанных сообщений. Смертельное оружие / Lethal Weapon / 2 сезон 1-22 серии из 22 [боевик, триллер, драма, криминал, 2017] WEBRip, Mvo [LostFilm]

salma3

5 | 4

11.82 ГБ

В этой теме нет новых непрочитанных сообщений. Испытание бомбой (Виктор Ющенко) [2004, документальный, оружие, история, IPTVRip]

salma3

2 | 2

427.97 МБ


Начать новую тему Ответить на тему  [ 1 сообщение ] 




Для Мосгорсуда, Роскомнадзора и рекламодателей:: mosgorsud-torrent[собачка]yandex.ru
cron