Торрент файл
скачать торрент магнет ссылка Добавлен: 13 сен 2014, 14:54
Размер: 728.81 МБ
Сидеров: 11
Личеров: 3
Автор

СообщениеДобавлено: 13 сен 2014, 14:54 

В сети
Супермодератор
Аватара пользователя
Дата регистрации:
15 фев 2012, 16:44
Возраст: 28
Спасибо: 7284 / 2147
Сообщения: 70178
B-2 «Стелс» на войне / B-2 Stealth at War

Год выпуска: 2013
Жанр: документальный
Режиссер: Брайан Армстронг


Описание:
Нортроп B-2 «Спирит» (англ. Northrop B-2 Spirit) - американский тяжёлый малозаметный стратегический бомбардировщик, также известный как «Стелс», является самым дорогим самолетом в истории авиации. Его стоимость более двух миллиардов долларов. Эта технологически передовая машина является неотъемлемой частью арсенала ВВС Соединенных Штатов в течение последних 20 лет. Благодаря своему названию – «самолет–невидимка», с ним связанно множество мифов и легенд. Фильм расскажет об истории создания бомбардировщика и его боевом послужном списке, начиная с войны в Косово, удара по армии Каддафи в Ливии, до операции по освобождению Ирака.

Страна: США
Продолжительность: 00:50:52
Перевод: Профессиональный (одноголосый)

Файл
Качество: SATRip
Формат файла: AVI
Видео кодек: XviD
Аудио кодек: AC3
Видео: 720x400 (16:9), 25 fps, DivX 5 ~1802 kbps avg, 0.250 bit/pixel
Аудио: 48 kHz, AC3 Dolby Digital, 2/0 (L,R) ch, ~192 kbps

General
Полное имя : F:\Dowloads\B-2.Stels.na.vojne.2013.DivX.IPTVRip.alf62.avi
Формат : AVI
Формат/Информация : Audio Video Interleave
Размер файла : 729 Мбайт
Продолжительность : 50 м.
Общий поток : 2003 Кбит/сек
Библиотека кодирования : Boilsoft Joiner build 2411/release

Видео
Идентификатор : 0
Формат : MPEG-4 Visual
Профиль формата : Advanced [email protected]
Параметр BVOP формата : 2
Параметр QPel формата : Нет
Параметр GMC формата : Без точки перехода
Параметр матрицы формата : Default (MPEG)
Идентификатор кодека : DX50
Идентификатор кодека/Подсказка : DivX 5
Продолжительность : 50 м.
Битрейт : 1802 Кбит/сек
Ширина : 720 пикселей
Высота : 400 пикселей
Соотношение сторон : 16:9
Частота кадров : 25,000 кадров/сек
Цветовое пространство : YUV
Субдискретизация насыщенности : 4:2:0
Битовая глубина : 8 бит
Тип развёртки : Прогрессивная
Метод сжатия : С потерями
Бит/(Пиксели*Кадры) : 0.250
Размер потока : 655 Мбайт (90%)
Библиотека кодирования : XviD 73

Аудио
Идентификатор : 1
Формат : AC-3
Формат/Информация : Audio Coding 3
Расширение режима : CM (complete main)
Параметр Endianness формата : Big
Идентификатор кодека : 2000
Продолжительность : 50 м.
Вид битрейта : Постоянный
Битрейт : 192 Кбит/сек
Каналы : 2 канала
Расположение каналов : Front: L R
Частота : 48,0 КГц
Битовая глубина : 16 бит
Метод сжатия : С потерями
Задержка видео : 8 мс.
Размер потока : 69,8 Мбайт (10%)
Выравнивание : Разделение по промежуткам
Продолжительность промежутка : 40 мс. (1,00 видеокадр)
Время предзагрузки промежутка : 500 мс.



_________________
Проголосуй за трекер Открытый торрент трекер - RUS-MEDIA.ORG

Проголосуй Открытый торрент трекер - RUS-MEDIA.ORG


Вернуться к началу
 Профиль Отправить личное сообщение  
 
   Похожие торренты   Автор   Торрент   Размер 
В этой теме нет новых непрочитанных сообщений. The Last of Us [Action, 3D, 3rd Person, Stealth, 2013] PS3

salma3

0 | 0

37.69 ГБ

В этой теме нет новых непрочитанных сообщений. Remember Me [Action, 3D, 3rd Person, Stealth, 2013] PS3

salma3

0 | 0

5.85 ГБ

В этой теме нет новых непрочитанных сообщений. Sir, You Are Being Hunted [Action (Shooter), 3D, 1st Person, Stealth, 2013] [Steam-Rip]

Sykre

1 | 2

415.33 МБ

В этой теме нет новых непрочитанных сообщений. Секретные территории -Свалка Вселенной (Эфир от 10.05.2013) (Рен-ТВ) [2013, документальный, SATRip]

salma3

0 | 1

568.25 МБ

В этой теме нет новых непрочитанных сообщений. Странное дело. Ангел безнадежных (эфир 18.01.2013) (рен-тв) [2013, документальный, SATRip]

salma3

0 | 3

570.3 МБ

В этой теме нет новых непрочитанных сообщений. Секретные территории. Признаки тьмы (эфир 18.01.2013) (рен-тв) [2013, документальный, SATRip]

salma3

1 | 2

568.22 МБ

В этой теме нет новых непрочитанных сообщений. Секретные территории - В подвалах времени (Эфир от 10.05.2013) (Рен-ТВ) [2013, документальный, SATRip]

salma3

0 | 1

541.32 МБ


Начать новую тему Ответить на тему  [ 1 сообщение ] 




Для Мосгорсуда, Роскомнадзора и рекламодателей:: mosgorsud-torrent[собачка]yandex.ru
cron