Торрент файл
скачать торрент магнет ссылка Добавлен: 03 июл 2014, 14:50
Размер: 4.08 ГБ
Сидеров: 31
Личеров: 11
Автор

СообщениеДобавлено: 03 июл 2014, 14:50 

В сети
Супермодератор
Аватара пользователя
Дата регистрации:
15 фев 2012, 16:44
Возраст: 28
Спасибо: 7204 / 2147
Сообщения: 65200
Год выпуска: 2012
Жанр: документальный, оружие, история
Режиссер: Макс Калхейн

Описание:
«История необычных изобретений…»

Во время мировых войн Запад придумывал невероятные устройства для шпионажа и уничтожения врагов. Реактивный ранец, надувной резиновый самолёт, голубь с управляемой бомбой и даже кошка, подслушивающая врага. Это лишь часть странных идей, которые приходили в голову конструкторам. На Востоке тоже не спали. Огромный советский «Экраноплан»; самолет, несущий в нескольких сантиметрах над водой крылатые ракеты для удара по кораблям НАТО, и другие устройства должны были крепко потрепать мировой империализм. В сериале можно увидеть секретные кадры одних из самых необычных военных разработок когда-либо построенных. «Самое странное оружие мира» — это история того, как военная необходимость раздвинула границы изобретения до экстремального уровня.



Страна: BBC, Worldwide Digital Entertainment
Продолжительность: 6 х ~ 00:48:00
Перевод: Профессиональный (одноголосый)

Файл
Качество: HDTVRip
Формат файла: AVI
Видео кодек: DivX
Аудио кодек: AC3
Видео: 704x400 (1.76:1), 25 fps, DivX MPEG-4 ~ 1800 kbps avg, 0.256 bit/pixel
Аудио: 48 kHz, АС3, 2 ch, Front: L R ~192.00 kbps avg
Тех. данные файлов идентичны.

Доп. информация: Большое спасибо автору релиза alf62

1. Секретное оружие десанта / Secret Weapons of D-Day
Летом 1944 года союзники готовят величайший десант в истории. Используя изобретательность они создают неординарное оружие для преодоления нацистской обороны.

2. В поисках «умной бомбы» / In Search of the Smart Bomb
Во время второй мировой войны для управления бомбами пытались использовать голубей, кошек и даже летучих мышей. «Гонка вооружений» за первые «умные бомбы» - расширяет границы технологий и человеческого воображения.

3. Летающий солдат / The Flying Soldier
Американская армия ищет оружие будущего - солдата, который может летать. Это секретная миссия.

4. Нацистские боевые машины / Nazi War Machines
Мегатанк, Суперракеты, «летающее крыло» - это революционное оружие, считает Адольф Гитлер, поможет ему выиграть войну.

5. Ударная группа гидросамолетов / Seaplane Strike Force
Противостояние происходит между Сверхдержавами в годы Холодной Войны. Один неверный шаг мог развязать ядерный ад. Сверхсекретный архив принимает нас за кулисы, чтобы выявить лучшие гидросамолеты Сверхдержав.

6. Оружие супершпионов / Weapons of the Superspies
Во время Холодной войны, два самых мощных в мире страны переплелись в опасный тупик. Американцы опасаются, что ядерной войны, и правительство США знает слишком мало о своем скрытом враге - СССР. Эта война шпионажа и бум в шпионских технологий. Запад придумывал невероятные устройства для шпионажа и уничтожения врагов: реактивный ранец, надувной резиновый самолёт, и даже кошка, подслушивающая врага.
Самое странное оружие мира (1 сезон, 6 серий).2012\Strannoe.oruzhie.(6.serij.iz.6).2012.DivX.HDTVRip.alf62\Strannoe.oruzhie.(3.serija.iz.6).Letajushhij.soldat.2012.DivX.HDTVRip.alf62.avi
Format : AVI
Format/Info : Audio Video Interleave
File size : 694 MiB
Duration : 48mn 29s
Overall bit rate : 2 001 Kbps
Writing application : VirtualDubMod 1.5.10.3 | http://www.virtualdub-fr.org || (build 2550/release)
Writing library : VirtualDubMod build 2550/release

Video
ID : 0
Format : MPEG-4 Visual
Format profile : Advanced [email protected]
Format settings, BVOP : 2
Format settings, QPel : No
Format settings, GMC : No warppoints
Format settings, Matrix : Default (MPEG)
Codec ID : DX50
Codec ID/Hint : DivX 5
Duration : 48mn 29s
Bit rate : 1 800 Kbps
Width : 704 pixels
Height : 400 pixels
Display aspect ratio : 16:9
Frame rate : 25.000 fps
Color space : YUV
Chroma subsampling : 4:2:0
Bit depth : 8 bits
Scan type : Progressive
Compression mode : Lossy
Bits/(Pixel*Frame) : 0.256
Stream size : 624 MiB (90%)
Writing library : XviD 73

Audio
ID : 1
Format : AC-3
Format/Info : Audio Coding 3
Mode extension : CM (complete main)
Format settings, Endianness : Big
Codec ID : 2000
Duration : 48mn 19s
Bit rate mode : Constant
Bit rate : 192 Kbps
Channel count : 2 channels
Channel positions : Front: L R
Sampling rate : 48.0 KHz
Bit depth : 16 bits
Compression mode : Lossy
Stream size : 66.4 MiB (10%)
Alignment : Split accross interleaves
Interleave, duration : 40 ms (1.00 video frame)
Interleave, preload duration : 500 ms




[


_________________
Проголосуй за трекер Открытый торрент трекер - RUS-MEDIA.ORG

Проголосуй Открытый торрент трекер - RUS-MEDIA.ORG


Вернуться к началу
 Профиль Отправить личное сообщение  
 
   Похожие торренты   Автор   Торрент   Размер 
В этой теме нет новых непрочитанных сообщений. Странное дело: Тайное оружие Гитлера (Эфир от 22.03.2013) [2013, документальный, научно-популярный, история, SATRip]

salma3

3 | 2

563.35 МБ

В этой теме нет новых непрочитанных сообщений. История огнестрельного оружия США (13 серий из 13) / Midway USA. Gun Stories (Тим Кремин) [2011, документальный, оружие, HDTVRip] VO

salma3

1 | 1

4.12 ГБ

В этой теме нет новых непрочитанных сообщений. Испытание бомбой (Виктор Ющенко) [2004, документальный, оружие, история, IPTVRip]

salma3

2 | 2

427.97 МБ

В этой теме нет новых непрочитанных сообщений. National Geographic: Тайное оружие Гитлера /National Geographic: Hitler's (Nazi) Secret Weapon (Жан-Кристоф Карон) [2010, документальный, HDTVRip] DUB

salma3

2 | 2

701.47 МБ

В этой теме нет новых непрочитанных сообщений. Русское оружие (5 выпусков) (Россия 24) [2013, документальный, WEBRip-AVC]

salma3

1 | 1

959.64 МБ

В этой теме нет новых непрочитанных сообщений. Смертельное Оружие / Lethal Weapon [01x01-06 из 13] (2016) HDTVRip 720p | Jetvis Studio

marya111

0 | 0

7.03 ГБ

В этой теме нет новых непрочитанных сообщений. Странное дело: Апокалипсис. Рождение предков (Эфир от 29.03.2013) [2013, документальный, научно-популярный, история, SATRip]

salma3

0 | 1

565.62 МБ


Начать новую тему Ответить на тему  [ 1 сообщение ] 




Для Мосгорсуда, Роскомнадзора и рекламодателей:: mosgorsud-torrent[собачка]yandex.ru
cron