Торрент файл
скачать торрент магнет ссылка Добавлен: 13 мар 2012, 00:53
Размер: 645.18 МБ
Сидеров: 19
Личеров: 9
Автор

СообщениеДобавлено: 13 мар 2012, 00:53 

Не в сети
Супермодератор
Аватара пользователя
Дата регистрации:
22 май 2010, 11:03
Возраст: 33
Спасибо: 7741 / 13
Сообщения: 49837
Суперсооружения: Добытчики алмазов / Megastructures: Diamond Diggers


Перевод: Профессиональный (одноголосый), cубтитры: отсутствуют
Формат: HDTVRip, MKV, H.264, MP3
Страна: Канада
Режиссер: Ким Вудард
Жанр: документальный
Продолжительность: 00:46:14
Год выпуска: 2005
Описание: Алмазная шахта Ekati находится в 200 км к югу от Северного полярного круга, она стала первой открытой и подземной шахтой в Канаде и была официально открыта 14 октября 1998 года. Расположенная недалеко от Йеллоунайфа, шахта функционирует в зоне вечной мерзлоты и доступ к ней осуществляется только воздушным транспортом, за исключением возможности использовать зимнюю дорогу около 10 недель в году.

Вы увидете самую мощную горнодобывающую технику в мире: "Д-90" - бурильная установка роторно-отбойного действия, гидравлический экскаватор "Демаг-655" и карьерный самосвал "CAT-793C".

Доказанные запасы, пригодные для открытой разработки, составляют 4,8 миллиона карат, для подземной добычи - 2,56 миллиона карат. Выручка за 2010 год составила 1,27 миллиарда долларов, объем добычи - 3,81 миллиона карат, капитальные затраты - 127 миллионов долларов, операционная прибыль (EBIT) - 485 миллионов долларов.

Видео: 1280x720 (16:9), 25.000 fps, AVC(х264), , ~ 1 800 Kbps, 0.078 bit/pixel
Аудио: 48 kHz, MPEG Layer 3, 2 ch, ~128.00 kbps avg
General
Complete name: D:\Документальное видео\megastructures_diamond_diggers_[tfile.ru].mkv
Format: Matroska
File size: 645 MiB
Duration: 46mn 14s
Overall bit rate: 1 950 Kbps
Encoded date: UTC 2011-12-11 09:17:58
Writing application: mkvmerge v2.4.0 ('Fumbling Towards Ecstasy') built on Oct 11 2008 20:13:15
Writing library: libebml v0.7.7 + libmatroska v0.8.1

Video
ID: 1
Format: AVC
Format/Info: Advanced Video Codec
Format profile:
Format settings, CABAC: No
Format settings, ReFrames: 1 frame
Muxing mode: Container [email protected]
Codec ID: V_MPEG4/ISO/AVC
Duration: 46mn 14s
Bit rate: 1 800 Kbps
Width: 1 280 pixels
Height: 720 pixels
Display aspect ratio: 16:9
Frame rate: 25.000 fps
Color space: YUV
Chroma subsampling: 4:2:0
Bit depth: 8 bits
Scan type: Progressive
Bits/(Pixel*Frame): 0.078
Stream size: 590 MiB (91%)
Writing library: x264 core 80 r1378+57 6f6b50a
Encoding settings: cabac=0 / ref=1 / deblock=1:0:0 / analyse=0x3:0x113 / me=hex / subme=7 / psy=1 / psy_rd=1.0:0.0 / mixed_ref=0 / me_range=16 / chroma_me=1 / trellis=0 / 8x8dct=1 / cqm=0 / deadzone=21,11 / fast_pskip=1 / chroma_qp_offset=-2 / threads=3 / sliced_threads=0 / nr=0 / decimate=1 / mbaff=0 / constrained_intra=0 / bframes=0 / wpredp=2 / keyint=250 / keyint_min=25 / scenecut=40 / rc_lookahead=40 / rc=abr / mbtree=1 / bitrate=1800 / ratetol=1.0 / qcomp=0.60 / qpmin=10 / qpmax=51 / qpstep=4 / ip_ratio=1.40 / aq=1:1.00

Audio
ID: 2
Format: MPEG Audio
Format version: Version 1
Format profile: Layer 3
Mode: Joint stereo
Mode extension: MS Stereo
Codec ID: A_MPEG/L3
Codec ID/Hint: MP3
Duration: 46mn 14s
Bit rate mode: Constant
Bit rate: 128 Kbps
Channel(s): 2 channels
Sampling rate: 48.0 KHz
Stream size: 42.3 MiB (7%)












Поделиться:



Вернуться к началу
 Профиль Отправить личное сообщение  
 
   Похожие торренты   Автор   Торрент   Размер 
В этой теме нет новых непрочитанных сообщений. Diamond Foxxx - офигенная лярва, обожающая трахаться!!! (aka Diamond, Diamond Fox, Diamond Foxx, Lauren) (129 роликов - МЕГАПАК!!!) [All Sex, Anal, Big Tits, DP, GangBang, Gonzo, Lesbians, MILF, Solo, Softcore, Squirt, Toys]

salma3

24 | 121

50.8 ГБ

В этой теме нет новых непрочитанных сообщений. Гром над палубой. Судьба авианосца (Георгий Ратушев) [2005, документальный, вооружение, TVRip]

salma3

1 | 1

612.04 МБ

В этой теме нет новых непрочитанных сообщений. Суперсооружения Третьего рейха (1 сезон, 1-6 серии из 6) / National Geographic: Nazi megastructure (National Geographic) [2013, документальный, HDTVRip] VO

salma3

3 | 1

3.5 ГБ

В этой теме нет новых непрочитанных сообщений. [Fuckingawesome.com] Diamond Monrow(DIAMOND HELPS HER COMMANDER IN CHIEF GET A LOAD OFF) [2017 г., All Sex, Blowjob, 480p]

salma3

0 | 0

303.35 МБ

В этой теме нет новых непрочитанных сообщений. [MrsCreampie.com] Diamond Foxxx (Diamond's Juiced Filled Pussy) [2016 г., All Sex, Big Tits, Creampie, 720p]

salma3

8 | 2

875.97 МБ

В этой теме нет новых непрочитанных сообщений. [BlackSinner.com] Skin Diamond (Skin Diamond: Again the Black in the Ass) [06/20/2017 г., Anal, IR, Big Cock, Blowjob, White Ass, Hardcore, 1080p]

salma3

6 | 2

1.78 ГБ

В этой теме нет новых непрочитанных сообщений. [BlackSinner.com] Skin Diamond (Skin Diamond: Destroy MY ASS!) [06/20/2017 г., Anal, IR, Big Cock, Blowjob, Big Tits, White Ass, Hardcore, 1080p]

salma3

9 | 3

2.88 ГБ


Начать новую тему Ответить на тему  [ 1 сообщение ] 




Для Мосгорсуда, Роскомнадзора и рекламодателей:: mosgorsud-torrent[собачка]yandex.ru
cron