Торрент файл
скачать торрент магнет ссылка Добавлен: 13 мар 2012, 00:52
Размер: 646.63 МБ
Сидеров: 13
Личеров: 7
Автор

СообщениеДобавлено: 13 мар 2012, 00:52 

Не в сети
Супермодератор
Аватара пользователя
Дата регистрации:
22 май 2010, 11:03
Возраст: 33
Спасибо: 7741 / 13
Сообщения: 49837
Чудеса инженерии: Купол / Big Bigger Biggest: Dome


Перевод: Профессиональный (одноголосый), cубтитры: отсутствуют
Формат: HDTVRip, MKV, H.264, MP3
Страна: Япония
Режиссер: National Geographic
Жанр: документальный
Продолжительность: 00:46:49
Год выпуска: 2009
Описание: Мы исследуем самое крупное в мире купольное перекрытие над стадионом в Оите в Японии. Его пролет 274 метра, оно покрывает 43000 зрительских мест.
Видео: 1280x720 (16:9), 25.000 fps, AVC(х264), , ~ 1 800 Kbps, 0.078 bit/pixel
Аудио: 48 kHz, MPEG Layer 3, 2 ch, ~128.00 kbps avg
General
Unique ID: 217276880227740360804093709738211344779 (0xA3760146B8891951AFD2FC788D25018B)
Complete name: D:\Документальное видео\big_bigger_biggest_dome_[tfile.ru].mkv
Format: Matroska
Format version: Version 1
File size: 647 MiB
Duration: 46mn 49s
Overall bit rate: 1 931 Kbps
Encoded date: UTC 2012-01-03 14:21:06
Writing application: mkvmerge v2.4.0 ('Fumbling Towards Ecstasy') built on Oct 11 2008 20:13:15
Writing library: libebml v0.7.7 + libmatroska v0.8.1

Video
ID: 1
Format: AVC
Format/Info: Advanced Video Codec
Format profile:
Format settings, CABAC: No
Format settings, ReFrames: 1 frame
Codec ID: V_MPEG4/ISO/AVC
Duration: 46mn 49s
Bit rate: 1 800 Kbps
Width: 1 280 pixels
Height: 720 pixels
Display aspect ratio: 16:9
Frame rate: 25.000 fps
Color space: YUV
Chroma subsampling: 4:2:0
Bit depth: 8 bits
Scan type: Progressive
Bits/(Pixel*Frame): 0.078
Stream size: 591 MiB (91%)
Writing library: x264 core 80 r1378+57 6f6b50a
Encoding settings: cabac=0 / ref=1 / deblock=1:0:0 / analyse=0x3:0x113 / me=hex / subme=7 / psy=1 / psy_rd=1.0:0.0 / mixed_ref=0 / me_range=16 / chroma_me=1 / trellis=0 / 8x8dct=1 / cqm=0 / deadzone=21,11 / fast_pskip=1 / chroma_qp_offset=-2 / threads=3 / sliced_threads=0 / nr=0 / decimate=1 / mbaff=0 / constrained_intra=0 / bframes=0 / wpredp=2 / keyint=250 / keyint_min=25 / scenecut=40 / rc_lookahead=40 / rc=abr / mbtree=1 / bitrate=1800 / ratetol=1.0 / qcomp=0.60 / qpmin=10 / qpmax=51 / qpstep=4 / ip_ratio=1.40 / aq=1:1.00
Default: Yes
Forced: No

Audio
ID: 2
Format: MPEG Audio
Format version: Version 1
Format profile: Layer 3
Mode: Joint stereo
Mode extension: MS Stereo
Codec ID: A_MPEG/L3
Codec ID/Hint: MP3
Duration: 46mn 49s
Bit rate mode: Constant
Bit rate: 128 Kbps
Channel(s): 2 channels
Sampling rate: 48.0 KHz
Compression mode: Lossy
Stream size: 42.9 MiB (7%)
Default: Yes
Forced: No









Поделиться:



Вернуться к началу
 Профиль Отправить личное сообщение  
 
   Похожие торренты   Автор   Торрент   Размер 
В этой теме нет новых непрочитанных сообщений. Суперсооружения Третьего рейха (1 сезон, 1-6 серии из 6) / National Geographic: Nazi megastructure (National Geographic) [2013, документальный, HDTVRip] VO

salma3

3 | 1

3.5 ГБ

В этой теме нет новых непрочитанных сообщений. National Geographic: Жизнь в космосе / National Geographic: Living in Space (National Geographic Channels) [2014, документальный, SATRip] AVO

salma3

0 | 1

580.11 МБ

В этой теме нет новых непрочитанных сообщений. National Geographic: Тайное оружие Гитлера /National Geographic: Hitler's (Nazi) Secret Weapon (Жан-Кристоф Карон) [2010, документальный, HDTVRip] DUB

salma3

2 | 2

701.47 МБ

В этой теме нет новых непрочитанных сообщений. National Geographic: Путешествие к Европе / National Geographic: Journey To Europe (Марк Зануси) [2011, документальный, SATRip] VO

salma3

0 | 1

529.85 МБ

В этой теме нет новых непрочитанных сообщений. National Geographic. НЛО над Европой / National Geographic. The UFO over Europe (Стюарт Картер) [2012, документальный, научно-познавательный, уфология, IPTVRip] VO

salma3

0 | 1

641.93 МБ

В этой теме нет новых непрочитанных сообщений. National Geographic: Путешествие на край Вселенной / National Geographic: Journey to the Edge of the Universe (Явар Аббас) [2008, документальный, космос, BDRip] DUB

salma3

6 | 1

1.46 ГБ

В этой теме нет новых непрочитанных сообщений. National Geographic: Удивительные обитатели Тайваня / National Geographic: Taiwan's Amazing Creatures [2011, Документальный, флора, фауна, путешествия, SATRip] DUB

salma3

0 | 2

568.3 МБ


Начать новую тему Ответить на тему  [ 1 сообщение ] 




Для Мосгорсуда, Роскомнадзора и рекламодателей:: mosgorsud-torrent[собачка]yandex.ru
cron