Торрент файл
скачать торрент магнет ссылка Добавлен: 24 дек 2011, 16:58
Размер: 682.3 МБ
Сидеров: 14
Личеров: 11
Автор

СообщениеДобавлено: 24 дек 2011, 16:58 

Не в сети
Супермодератор
Аватара пользователя
Дата регистрации:
22 май 2010, 11:03
Возраст: 33
Спасибо: 7741 / 13
Сообщения: 49837
Враг человечества. Усама Бен Ладен – секретный агент номер 1

Перевод:не требуется
Субтитры:отсутствуют
Формат:SATRip, AVI, H.264, MP3
Страна:Россия
Студия:Mainstream TV company/ Россия, РЕН ТВ
Режиссер:Михаил Тукмачев
Жанр:документальный
Продолжительность:01:36:24
Год выпуска:2011

Описание: Этого человека знает весь мир, и при этом о нём никто ничего не знает.
Он считался врагом Америки, но работал на спецслужбы США. Его не могли
поймать 15 лет лучшие разведки мира. Все новостные агентства объявили, что он
убит, но мёртвым его так никто и не видел. Он стал воплощением зла для
миллионов, но существовал ли он на самом деле? Враг человечества Усама Бен Ладан.


Видео:704x400 (1.76:1), 25.000fps, AVC (x264), [email protected], ~ 851kbps avg, 0.121bit/pixel
Аудио: 48.0KHz, MPEG Layer 3, 2 ch, ~ 128kbps avg ]

File: usama_ban_laden_[tfile.ru].avi
Filesize: 682.30 Mb ( 715 443 628 bytes )
Play length: 01:36:24.520 (144613 frames)
Subtitles: Not Present
Video: 704x400 (1.76:1), 25 fps,~ 851 kbps avg, 0.121 bit/pixel
Audio: 48 kHz, MPEG Layer 3, 2 ch, ~128.00 kbps avg
Общее
Полное имя: D:\загрузки\usama_ban_laden_[tfile.ru]\usama_ban_laden_[tfile.ru].avi
Формат: AVI
Формат/Информация: Audio Video Interleave
Размер файла: 682 Мбайт
Продолжительность: 1 ч. 36 м.
Общий поток: 989 Кбит/сек
Библиотека кодирования: VirtualDub build 32842/release

Видео
Идентификатор: 0
Формат: AVC
Формат/Информация: Advanced Video Codec
Профиль формата: [email protected]
Параметр CABAC формата: Да
Параметр ReFrames формата: 4 кадра
Идентификатор кодека: H264
Продолжительность: 1 ч. 36 м.
Битрейт: 850 Кбит/сек
Ширина: 704 пикселя
Высота: 400 пикселей
Соотношение сторон: 16:9
Частота кадров: 25,000 кадров/сек
Цветовое пространство: YUV
Субдискретизация насыщенности: 4:2:0
Битовая глубина: 8 бит
Тип развёртки: Прогрессивная
Бит/(Пиксели*Кадры): 0.121
Размер потока: 587 Мбайт (86%)
Библиотека кодирования: x264 core 115 r2008bm 4c552d8
Настройки программы: cabac=1 / ref=3 / deblock=1:-1:-1 / analyse=0x3:0x113 / me=hex / subme=7 / psy=1 / psy_rd=1.00:0.15 / mixed_ref=1 / me_range=16 / chroma_me=1 / trellis=1 / 8x8dct=1 / cqm=0 / deadzone=21,11 / fast_pskip=1 / chroma_qp_offset=-3 / threads=3 / sliced_threads=0 / nr=0 / decimate=1 / interlaced=0 / bluray_compat=0 / constrained_intra=0 / bframes=3 / b_pyramid=2 / b_adapt=1 / b_bias=0 / direct=1 / weightb=1 / open_gop=0 / weightp=2 / keyint=250 / keyint_min=25 / scenecut=40 / intra_refresh=0 / rc_lookahead=40 / rc=abr / mbtree=1 / bitrate=850 / ratetol=1.0 / qcomp=0.60 / qpmin=0 / qpmax=69 / qpstep=4 / ip_ratio=1.40 / aq=1:1.00

Аудио
Идентификатор: 1
Формат: MPEG Audio
Версия формата: Version 1
Профиль формата: Layer 3
Режим: Joint stereo
Расширение режима: MS Stereo
Идентификатор кодека: 55
Идентификатор кодека/Подсказка: MP3
Продолжительность: 1 ч. 36 м.
Вид битрейта: Постоянный
Битрейт: 128 Кбит/сек
Каналы: 2 канала
Частота: 48,0 КГц
Метод сжатия: С потерями
Размер потока: 88,3 Мбайт (13%)
Выравнивание: Разделение по промежуткам
Продолжительность промежутка: 40мс. (1,00 видеокадр)
Время предзагрузки промежутка: 500мс.















Поделиться:



Вернуться к началу
 Профиль Отправить личное сообщение  
 
   Похожие торренты   Автор   Торрент   Размер 
В этой теме нет новых непрочитанных сообщений. Секретный агент / Unlocked [Боевик, триллер, 2017] Blu-Ray 1080p, Dub+Sub [Лицензия]

salma3

58 | 45

22.35 ГБ

В этой теме нет новых непрочитанных сообщений. Секретный агент / Unlocked [Боевик, триллер, 2017] BDRip-AVC, Dub [Лицензия]

salma3

339 | 114

1.44 ГБ

В этой теме нет новых непрочитанных сообщений. Секретный агент / Unlocked [Боевик, триллер, 2017] BDRip-AVC, Dub [iTunes]

salma3

75 | 6

1.39 ГБ

В этой теме нет новых непрочитанных сообщений. Секретный агент / Unlocked [Боевик, триллер, 2017] BDRip, Dub [Лицензия]

salma3

1531 | 241

1.46 ГБ

В этой теме нет новых непрочитанных сообщений. Секретный агент / Unlocked [Боевик, триллер, 2017] BDRip 1080p, Dub+Sub [Лицензия]

salma3

149 | 10

11.27 ГБ

В этой теме нет новых непрочитанных сообщений. Секретный агент / Unlocked [Боевик, триллер, 2017] BDRemux 1080p, Dub+Sub [Лицензия]

salma3

130 | 39

26.06 ГБ

В этой теме нет новых непрочитанных сообщений. Секретный агент / Unlocked [Боевик, триллер, 2017] BDRip 720p, Dub+Sub [Лицензия]

salma3

185 | 38

5.44 ГБ


Начать новую тему Ответить на тему  [ 1 сообщение ] 




Для Мосгорсуда, Роскомнадзора и рекламодателей:: mosgorsud-torrent[собачка]yandex.ru
cron