Торрент файл
скачать торрент магнет ссылка Добавлен: 24 дек 2011, 16:57
Размер: 1.21 ГБ
Сидеров: 5
Личеров: 8
Автор

СообщениеДобавлено: 24 дек 2011, 16:57 

Не в сети
Супермодератор
Аватара пользователя
Дата регистрации:
22 май 2010, 11:03
Возраст: 33
Спасибо: 7730 / 13
Сообщения: 49846
Миф о Роммеле (3 серии из 3) / Mythos Rommel

Перевод: Профессиональный (одноголосый), cубтитры: отсутствуют
Формат: DVDRip, AVI, XviD, MP3
Страна: Германия
Режиссер: Маурице Филипе Реми
Жанр: документальный
Продолжительность: 02:08:52
Год выпуска: 2002

Описание: Новый взгляд немецких историков на фельдмаршала Роммеля в 3-х серийном фильме: Воин [фильм 1]; Проигравший [фильм 2]; Заговорщик [фильм 3]

Видео: 640x480 (1.33:1), 29.970 fps, XviD MPEG-4 ~1199 kbps avg, 0.13 bit/pixel
Аудио: 48 kHz, MPEG Layer 3, 2 ch, ~128.00 kbps avg

General
Complete name: C:\Dowloads\mif_o_rommele_[tfile.ru].avi
Format: AVI
Format/Info: Audio Video Interleave
File size: 1.21 GiB
Duration: 2h 8mn
Overall bit rate: 1 342 Kbps

Video
ID: 0
Format: MPEG-4 Visual
Format profile: [email protected]
Format settings, BVOP: No
Format settings, QPel: No
Format settings, GMC: No warppoints
Format settings, Matrix: Default (H.263)
Codec ID: XVID
Codec ID/Hint: XviD
Duration: 2h 8mn
Bit rate: 1 200 Kbps
Width: 640 pixels
Height: 480 pixels
Display aspect ratio: 4:3
Frame rate: 29.970 fps
Color space: YUV
Chroma subsampling: 4:2:0
Bit depth: 8 bits
Scan type: Progressive
Compression mode: Lossy
Bits/(Pixel*Frame): 0.130
Stream size: 1.08 GiB (89%)
Writing library: Magic0432

Audio
ID: 1
Format: MPEG Audio
Format version: Version 1
Format profile: Layer 3
Mode: Joint stereo
Mode extension: MS Stereo
Codec ID: 55
Codec ID/Hint: MP3
Duration: 2h 8mn
Bit rate mode: Constant
Bit rate: 128 Kbps
Channel(s): 2 channels
Sampling rate: 48.0 KHz
Compression mode: Lossy
Stream size: 118 MiB (10%)
Alignment: Aligned on interleaves
Interleave, duration: 24 ms (0.72 video frame)
Writing library: LAME3.97






Поделиться:



Вернуться к началу
 Профиль Отправить личное сообщение  
 
   Похожие торренты   Автор   Торрент   Размер 
В этой теме нет новых непрочитанных сообщений. Поход Роммеля / Raid on Rommel [драма, военный, 1971] DVDRip, Mvo

salma3

63 | 10

1.37 ГБ

В этой теме нет новых непрочитанных сообщений. Наше будущее / Nos futurs (Реми Безансон / Rémi Bezançon) [2015г., Франция, комедия, HDRip] mvo

Alfredovich

54 | 15

1.46 ГБ

В этой теме нет новых непрочитанных сообщений. BBC: Поле битвы (Акулы,Волки,Львы) / Battlefield (ВВС) [2002, документальный, DVDRip] VO

salma3

0 | 3

2.18 ГБ

В этой теме нет новых непрочитанных сообщений. Современные чудеса. Арсенал Джеймса Бонда [01-02] (History Channel) [2002, документальный, научно-познавательный, технологии, SATRip] AVO

salma3

0 | 0

906.53 МБ

В этой теме нет новых непрочитанных сообщений. ВДВ: жизнь десантника [Серии 1-2 из 2] (РТД) [Документальный, 2013] SatRip

Dracon

2 | 1

682.06 МБ

В этой теме нет новых непрочитанных сообщений. Обратный отсчет [4 серии из 4] (Александр Митрошенков) [2011, документальный, SATRip]

salma3

0 | 1

1.3 ГБ

В этой теме нет новых непрочитанных сообщений. Как устроена природа (серии 1-4 из 4) / BBC: How Nature Works [документальный, 2012] LowHDTVRip, Dub

salma3

15 | 5

2.81 ГБ


Начать новую тему Ответить на тему  [ 1 сообщение ] 




Для Мосгорсуда, Роскомнадзора и рекламодателей:: mosgorsud-torrent[собачка]yandex.ru
cron