Торрент файл
скачать торрент магнет ссылка Добавлен: 24 дек 2011, 14:22
Размер: 684.05 МБ
Сидеров: 5
Личеров: 11
Автор

СообщениеДобавлено: 24 дек 2011, 14:22 

Не в сети
Супермодератор
Аватара пользователя
Дата регистрации:
22 май 2010, 11:03
Возраст: 33
Спасибо: 7730 / 13
Сообщения: 49846
Сфинкс: Тайны истории. Карл Великий - загадка первого императора / Geheimnisse der Geschichte. Karl der Große - Rätsel um den ersten Kaiser


Перевод: Профессиональный (одноголосый), cубтитры: отсутствуют
Формат: TVRip, AVI, XviD, MP3
Страна: Германия
Режиссер: Мартин Папировски, Луиза Вагнер-Руус / Martin Papirowski, Luise Wagner-Roos
Жанр: документальный (исторический)
Продолжительность: 00:51:28
Год выпуска: 1999
В ролях: Карл I Великий

Описание: Карл I Великий (747-814)– основатель династии Каролингов, создатель первой после римлян европейской империи и во многом определивший будущее Европы. Получив в наследие франкское царство, к концу присутствия на троне распространил свою власть на всю Центральную и Западную Европу – от Северного моря до Средиземного и от Атлантического океана до восточных берегов Адриатического моря. За время его царствования франки сделали 53 похода, из них 27 возглавлял сам Карл. Он больше всех правителей средневековья сделал для разработки законодательства, исследования латыни, сбора и переписки книжек, распространения христианского богословия.

Видео: 640x480 (4:3), 25 fps, XviD, 1717 kbps, 0.224 bit/pixel
Аудио: 48 kHz, MPEG Layer 3 (MP3), 2 ch., 128 kbps

Общее
Полное имя: Karl_[tfile.ru].avi
Формат: AVI
Формат/Информация: Audio Video Interleave
Размер файла: 684 Мбайт
Продолжительность: 51 м.
Общий поток: 1858 Кбит/сек
Программа кодирования: Lavf51.12.1

Видео
Идентификатор: 0
Формат: xvid
Идентификатор кодека: xvid
Продолжительность: 51 м.
Битрейт: 1717 Кбит/сек
Ширина: 640 пикс.
Высота: 480 пикс.
Соотношение сторон: 4:3
Частота кадров: 25,000 кадр/сек
Бит/(Пиксели*Кадры): 0.224
Размер потока: 632 Мбайт (92%)

Аудио
Идентификатор: 1
Формат: MPEG Audio
Версия формата: Version 1
Профиль формата: Layer 3
Режим: Joint stereo
Расширение режима: MS Stereo
Идентификатор кодека: 55
Идентификатор кодека/Подсказка: MP3
Продолжительность: 51 м.
Вид битрейта: Постоянный
Битрейт: 128 Кбит/сек
Каналы: 2 канала
Частота: 48,0 КГц
Метод сжатия: С потерями
Размер потока: 47,1 Мбайт (7%)
Выравнивание: Соединение по промежуткам
Продолжительность промежутка: 24мс. (0,60 видеокадр)














Поделиться:



Вернуться к началу
 Профиль Отправить личное сообщение  
 
   Похожие торренты   Автор   Торрент   Размер 
В этой теме нет новых непрочитанных сообщений. История Германского Военно-Морского Флота 1914-1945 / Die geschichte der deutschen kriegsmarine 1914-1945 (Йохан Ханке, Карл Хофкис) [2003, документальный, DVDRip] VO

salma3

0 | 3

700.28 МБ

В этой теме нет новых непрочитанных сообщений. С первого взгляда / At First Sight [драма, мелодрама, 1999] HDRip, Dvo [НТВ+]

salma3

83 | 33

1.45 ГБ

В этой теме нет новых непрочитанных сообщений. С первого взгляда / At First Sight [Мелодрама, драма, 1999] HDRip, Dub

salma3

20 | 8

1.38 ГБ

В этой теме нет новых непрочитанных сообщений. С первого взгляда / At First Sight [Мелодрама, драма, 1999] BDRip 1080р, Dub

salma3

3 | 1

12.88 ГБ

В этой теме нет новых непрочитанных сообщений. Повелитель зверей / BeastMaster [S01] (Майкл Оффер, Пино Амента, Карл Цвики) [1999, фэнтези, боевик, приключения, DVDRip]

Nickolas3435

116 | 180

8.51 ГБ

В этой теме нет новых непрочитанных сообщений. Истории квартала / Истории из морга / Tales from the Hood [ужасы, триллер, 1995] HDRip, Avo

salma3

131 | 23

1.45 ГБ

В этой теме нет новых непрочитанных сообщений. Марш для императора / Die Deutschmeister [мелодрама, музыкальный, 1955] DVDRip, Avo

salma3

0 | 7

1.46 ГБ


Начать новую тему Ответить на тему  [ 1 сообщение ] 




Для Мосгорсуда, Роскомнадзора и рекламодателей:: mosgorsud-torrent[собачка]yandex.ru
cron