Торрент файл
скачать торрент магнет ссылка Добавлен: 24 дек 2011, 14:08
Размер: 214.33 МБ
Сидеров: 0
Личеров: 5
Автор

СообщениеДобавлено: 24 дек 2011, 14:08 

Не в сети
Супермодератор
Аватара пользователя
Дата регистрации:
22 май 2010, 11:03
Возраст: 33
Спасибо: 7741 / 13
Сообщения: 49837
Биографии кумиров. Зинат Аман / Biographies an idol. Zeenat Aman

Перевод: Профессиональный (многоголосый, закадровый), cубтитры: отсутствуют
Формат: SATRip, AVI, XviD, MP2
Страна: ИндияРоссия
Режиссер: Людмила Бершанская
Жанр: документальный, шоу
Продолжительность: 00:15:08
Год выпуска: 2011
В ролях: Зинат Аман
Описание: Впервые в России - первая биографическая программа, созданная на телеканале "Индия ТВ". Ее героями являются звезды Болливуда: актеры, режиссеры, операторы и другие знаменитости. В программе изложены самые достоверные сведения о ваших кинокумирах и используются материалы собственного производства телеканала "Индия ТВ".

Видео: 720x544 (1.32:1), 25 fps, XviD MPEG-4 ~1719 kbps avg, 0.28 bit/pixel
Аудио: 48 kHz, MPEG Layer 2, 2 ch, ~256 kbps avg
Общее
Полное имя: D:\Downloads\Мои раздачи на tfile.ru\zeenat_aman_[tfile.ru].avi
Формат: AVI
Формат/Информация: Audio Video Interleave
Настройки формата: rec
Размер файла: 214 Мбайт
Продолжительность: 15 м.
Общий поток: 1980 Кбит/сек

Видео
Идентификатор: 0
Формат: MPEG-4 Visual
Профиль формата: Advanced [email protected]
Параметр BVOP формата: 2
Параметр QPel формата: Нет
Параметр GMC формата: Без точки перехода
Параметр матрицы формата: Выборочная
Идентификатор кодека: XVID
Идентификатор кодека/Подсказка: XviD
Продолжительность: 15 м.
Битрейт: 1719 Кбит/сек
Ширина: 720 пикс.
Высота: 544 пикс.
Соотношение сторон: 4:3
Частота кадров: 25,000 кадр/сек
Цветовое пространство: YUV
Подвыборка цветности: 4:2:0
Битовая глубина: 8 бит
Тип развёртки: Прогрессивная
Метод сжатия: С потерями
Бит/(Пиксели*Кадры): 0.176
Размер потока: 186 Мбайт (87%)
Библиотека кодирования: XviD 1.2.0.dev47 (UTC 2006-11-01)

Аудио
Идентификатор: 1
Формат: MPEG Audio
Версия формата: Version 1
Профиль формата: Layer 2
Расширение режима: MS Stereo
Идентификатор кодека: 50
Продолжительность: 15 м.
Вид битрейта: Постоянный
Битрейт: 256 Кбит/сек
Канал(ы): 2 канала(ов)
Частота: 48,0 КГц
Метод сжатия: С потерями
Задержка видео: 8 мс.
Размер потока: 27,7 Мбайт (13%)
Выравнивание: Разделение по промежуткам
Продолжительность промежутка: 2997мс. (74,93 видеокадров)






Поделиться:



Вернуться к началу
 Профиль Отправить личное сообщение  
 
   Похожие торренты   Автор   Торрент   Размер 
В этой теме нет новых непрочитанных сообщений. Город в огне (Людмила Снигирева) [2013, документальный, SATRip]

salma3

2 | 2

564.9 МБ

В этой теме нет новых непрочитанных сообщений. Морская сила России (1-6 серии из 6) (Людмила Назарук, Борис Мамлин) [2006 - 2009, документальный, флот, история, война, SATRip]

salma3

13 | 3

3.16 ГБ

В этой теме нет новых непрочитанных сообщений. Людмила Гурченко [Серия 1-16 из 16] (Сергей Алдонин, Александр Имакин) [Биографический, 2015] SATRip

Dracon

85 | 29

9.36 ГБ

В этой теме нет новых непрочитанных сообщений. Поверженный идол / Unmasking the Idol [Боевик, приключения, 1986] WEB-DL 1080p, Dvo [НТВ+]

salma3

0 | 0

9.51 ГБ

В этой теме нет новых непрочитанных сообщений. Наш мозг: факты и мифы [2011, документальный, SATRip]

salma3

0 | 0

549.89 МБ

В этой теме нет новых непрочитанных сообщений. Кумир / The Idol / Ya tayr el tayer (Хани Абу-Ассад / Hany Abu-Assad) [2015г., Палестина, драма, комедия, биография, музыка, DVDRip] АVO

Alfredovich

8 | 3

1.41 ГБ

В этой теме нет новых непрочитанных сообщений. Обратный отсчет [4 серии из 4] (Александр Митрошенков) [2011, документальный, SATRip]

salma3

0 | 1

1.3 ГБ


Начать новую тему Ответить на тему  [ 1 сообщение ] 




Для Мосгорсуда, Роскомнадзора и рекламодателей:: mosgorsud-torrent[собачка]yandex.ru
cron