Торрент файл
скачать торрент магнет ссылка Добавлен: 21 июл 2013, 20:44
Размер: 1.46 ГБ
Сидеров: 23
Личеров: 4
Автор

СообщениеДобавлено: 21 июл 2013, 20:44 

Не в сети
Зам. Админа
Аватара пользователя
Дата регистрации:
02 дек 2010, 12:39
Спасибо: 12652 / 214
Сообщения: 28010
Самозванец / The Imposter

«У всякой лжи - две правды»



Страна: Великобритания
Жанр: документальный, биография
Год выпуска: 2012
Продолжительность: 01:38:34

Перевод: Профессиональный (дублированный)
Cубтитры: русские
Режиссер: Барт Лэйтон / Bart Layton


В ролях: Адам О’Брайн, Анна Рубен, Кэти Дресбах, Алан Тичман, Иван Вильянуэва, Мария Хесус Хойос, Антон Марти, Ампаро Фонтанет, Кен Эпплдорн, Кэри Гибсон

Описание: 1997 год. Пропавший три года назад Николас Баркли, мальчик из простой техасской семьи, невероятным образом найден в Испании. Семья счастлива: их не смущает даже то, что парень сменил цвет волос и глаз, говорит с акцентом и никого не узнаёт. На самом деле это Фредерик Бурден: самозванец-виртуоз и мастер обмана, менявший свою личность по меньшей мере 39 раз. Разоблачить мошенника Бурдена пытаются агент ФБР и частный детектив, но их ждёт встреча с куда более мрачными тайнами. Ведь у каждой лжи — две правды.



Раздача от:

Автор Рипа: _Flash



Качество видео: HDRip
Формат видео: AVI
Видео: 672x288, 24 fps, XviD build 65 ~1855 kbps avg, 0.400 bit/pixel
Аудио: AC3, 256 кб/с, 6 ch
Общее
Полное имя : D:The.Imposter.HDRip.YTN.By_Flash.avi
Формат : AVI
Формат/Информация : Audio Video Interleave
Размер файла : 1,46 Гбайт
Продолжительность : 1 ч. 38 м.
Общий поток : 2120 Кбит/сек
Программа кодирования : VirtualDubMod 1.5.10.3 | http://www.virtualdub-fr.org || (build 2550/release)
Библиотека кодирования : VirtualDubMod build 2550/release

Видео
Идентификатор : 0
Формат : MPEG-4 Visual
Профиль формата : Advanced [email protected]
Параметр BVOP формата : 1
Параметр QPel формата : Нет
Параметр GMC формата : Без точки перехода
Параметр матрицы формата : Выборочная
Идентификатор кодека : XVID
Идентификатор кодека/Подсказка : XviD
Продолжительность : 1 ч. 38 м.
Битрейт : 1855 Кбит/сек
Ширина : 672 пикселя
Высота : 288 пикселей
Соотношение сторон : 2,35:1
Частота кадров : 24,000 кадра/сек
Цветовое пространство : YUV
Субдискретизация насыщенности : 4:2:0
Битовая глубина : 8 бит
Тип развёртки : Прогрессивная
Метод сжатия : С потерями
Бит/(Пиксели*Кадры) : 0.399
Размер потока : 1,28 Гбайт (87%)
Библиотека кодирования : XviD 65

Аудио
Идентификатор : 1
Формат : AC-3
Формат/Информация : Audio Coding 3
Расширение режима : CM (complete main)
Параметр Endianness формата : Big
Идентификатор кодека : 2000
Продолжительность : 1 ч. 38 м.
Вид битрейта : Постоянный
Битрейт : 256 Кбит/сек
Каналы : 6 каналов
Расположение каналов : Front: L C R, Side: L R, LFE
Частота : 48,0 КГц
Битовая глубина : 16 бит
Метод сжатия : С потерями
Размер потока : 181 Мбайт (12%)
Выравнивание : Разделение по промежуткам
Продолжительность промежутка : 42 мс. (1,00 видеокадр)
Время предзагрузки промежутка : 500 мс.







Вернуться к началу
 Профиль  
 
   Похожие торренты   Автор   Торрент   Размер 
В этой теме нет новых непрочитанных сообщений. Л.И. Брежнев. Смерть эпохи ( Документальный, история, политика, биография, 2012) IPTVRip от Pshichko66

marya111

34 | 0

692.2 МБ

В этой теме нет новых непрочитанных сообщений. Красная армия / Red Army (Гейб Польски) [Документальный, биография, история, 2014] HDRip [Сербин]

Dracon

2029 | 132

1.45 ГБ

В этой теме нет новых непрочитанных сообщений. Испытания Черчилля / Challenging Churchill (Петер Барделе) [2012, документальный, история, биография, SATRip] DVO

salma3

0 | 3

1.2 ГБ

В этой теме нет новых непрочитанных сообщений. Голос улиц / Straight Outta Compton [драма, биография, музыка, 2015] HDRip, Dub [лицензия]

Dracon

23 | 0

2.18 ГБ

В этой теме нет новых непрочитанных сообщений. Битва полов / Battle of the Sexes [Драма, комедия, биография, спорт, 2017] HDRip, Mvo [Лицензия] [КПК]

salma3

10 | 4

462.23 МБ

В этой теме нет новых непрочитанных сообщений. Шпионский мост / Bridge of Spies [триллер, драма, биография, история, 2015] HDRip, dub [лицензия]

Dracon

1281 | 69

1.45 ГБ

В этой теме нет новых непрочитанных сообщений. Уличный кот по кличке Боб / A Street Cat Named Bob [Драма, комедия, семейный, биография, 2016] HDRip, Mvo [Лицензия]

salma3

3962 | 1175

2.05 ГБ


Начать новую тему Ответить на тему  [ 1 сообщение ] 




Для Мосгорсуда, Роскомнадзора и рекламодателей:: mosgorsud-torrent[собачка]yandex.ru
cron