Торрент файл
скачать торрент магнет ссылка Добавлен: 21 июл 2013, 20:38
Размер: 4.94 ГБ
Сидеров: 37
Личеров: 9
Автор

СообщениеДобавлено: 21 июл 2013, 20:38 

Не в сети
Зам. Админа
Аватара пользователя
Дата регистрации:
02 дек 2010, 12:39
Спасибо: 12656 / 214
Сообщения: 28010
«У всякой лжи - две правды»



Страна: Великобритания / 24 Seven Productions, A&E Indie Films
Жанр: документальный, биография
Год выпуска: 2012
Продолжительность: 01:38:34

Перевод: Профессиональный (дублированный)
Оригинальная аудиодорожка: английский
Субтитры: русский (SDH), английский (SDH)

Режиссер: Барт Лэйтон / Bart Layton

В ролях: Адам О’Брайн, Анна Рубен, Кэти Дресбах, Алан Тичман, Иван Вильянуэва, Мария Хесус Ойос, Антон Марти, Ампаро Фонтанет, Кен Эпплдорн, Кэри Гибсон...

Описание: 1997 год. Пропавший три года назад Николас Баркли, мальчик из простой техасской семьи, невероятным образом найден в Испании. Семья счастлива: их не смущает даже то, что парень сменил цвет волос и глаз, говорит с акцентом и никого не узнаёт. На самом деле это Фредерик Бурден: самозванец-виртуоз и мастер обмана, менявший свою личность по меньшей мере 39 раз. Разоблачить мошенника Бурдена пытаются агент ФБР и частный детектив, но их ждёт встреча с куда более мрачными тайнами. Ведь у каждой лжи — две правды.






Исходник: BDRemux 1080p
Качество: BDRip 720p
Формат: MKV
Видео: 1280x544 (2.35:1), 24.000 fps, H264 ~ 4957 kbps avg, 0.297 bit/pixel
Аудио 1: 48 kHz, AC3 6 ch, 256 kbps, DUB
Аудио 2: 48 kHz, AC3 6 ch, 448 kbps, VO
Аудио 3: 48 kHz, DTS 6 ch, 1536 kbps, Original
Формат субтитров: SoftSub (srt)
Дополнительно: Фильм разбит на главы, как на оригинальном Blu-ray диске.

Раздача от:
Общее
Полное имя : Samozvanets.2012.D.BDRip.720p_[Youtracker]_by_avproh.mkv
Формат : Matroska
Версия формата : Version 4 / Version 2
Размер файла : 4,94 Гбайт
Продолжительность : 1 ч. 38 м.
Общий поток : 7172 Кбит/сек
Дата кодирования : UTC 2013-07-21 14:20:57
Программа кодирования : mkvmerge v6.1.0 ('Old Devil') built on Mar 2 2013 14:32:37
Библиотека кодирования : libebml v1.3.0 + libmatroska v1.4.0

Видео
Идентификатор : 1
Формат : AVC
Формат/Информация : Advanced Video Codec
Профиль формата : [email protected]
Параметр CABAC формата : Да
Параметр ReFrames формата : 8 кадров
Идентификатор кодека : V_MPEG4/ISO/AVC
Продолжительность : 1 ч. 38 м.
Битрейт : 4957 Кбит/сек
Ширина : 1280 пикселей
Высота : 544 пикселя
Соотношение сторон : 2,35:1
Режим частоты кадров : Постоянный
Частота кадров : 24,000 кадра/сек
Цветовое пространство : YUV
Субдискретизация насыщенности : 4:2:0
Битовая глубина : 8 бит
Тип развёртки : Прогрессивная
Бит/(Пиксели*Кадры) : 0.297
Размер потока : 3,32 Гбайт (67%)
Библиотека кодирования : x264 core 130 r2273 b3065e6
Настройки программы : cabac=1 / ref=8 / deblock=1:-3:-3 / analyse=0x3:0x113 / me=umh / subme=10 / psy=1 / psy_rd=1.05:0.10 / mixed_ref=1 / me_range=32 / chroma_me=1 / trellis=2 / 8x8dct=1 / cqm=0 / deadzone=21,11 / fast_pskip=0 / chroma_qp_offset=-3 / threads=9 / lookahead_threads=1 / sliced_threads=0 / nr=0 / decimate=1 / interlaced=0 / bluray_compat=0 / constrained_intra=0 / bframes=6 / b_pyramid=2 / b_adapt=2 / b_bias=0 / direct=3 / weightb=1 / open_gop=0 / weightp=2 / keyint=250 / keyint_min=25 / scenecut=40 / intra_refresh=0 / rc_lookahead=40 / rc=2pass / mbtree=1 / bitrate=4957 / ratetol=1.0 / qcomp=0.60 / qpmin=10 / qpmax=51 / qpstep=4 / cplxblur=20.0 / qblur=0.5 / vbv_maxrate=50000 / vbv_bufsize=50000 / nal_hrd=none / ip_ratio=1.40 / aq=1:0.80
Язык : English
Default : Да
Forced : Нет

Аудио #1
Идентификатор : 2
Формат : AC-3
Формат/Информация : Audio Coding 3
Расширение режима : CM (complete main)
Параметр Endianness формата : Big
Идентификатор кодека : A_AC3
Продолжительность : 1 ч. 38 м.
Вид битрейта : Постоянный
Битрейт : 256 Кбит/сек
Каналы : 6 каналов
Расположение каналов : Front: L C R, Side: L R, LFE
Частота : 48,0 КГц
Битовая глубина : 16 бит
Метод сжатия : С потерями
Размер потока : 181 Мбайт (4%)
Заголовок : DUB
Язык : Russian
Default : Нет
Forced : Нет

Аудио #2
Идентификатор : 3
Формат : AC-3
Формат/Информация : Audio Coding 3
Расширение режима : CM (complete main)
Параметр Endianness формата : Big
Идентификатор кодека : A_AC3
Продолжительность : 1 ч. 38 м.
Вид битрейта : Постоянный
Битрейт : 448 Кбит/сек
Каналы : 6 каналов
Расположение каналов : Front: L C R, Side: L R, LFE
Частота : 48,0 КГц
Битовая глубина : 16 бит
Метод сжатия : С потерями
Размер потока : 316 Мбайт (6%)
Заголовок : VO
Язык : Russian
Default : Нет
Forced : Нет

Аудио #3
Идентификатор : 4
Формат : DTS
Формат/Информация : Digital Theater Systems
Режим : 16
Параметр Endianness формата : Big
Идентификатор кодека : A_DTS
Продолжительность : 1 ч. 38 м.
Вид битрейта : Постоянный
Битрейт : 1509 Кбит/сек
Каналы : 6 каналов
Расположение каналов : Front: L C R, Side: L R, LFE
Частота : 48,0 КГц
Битовая глубина : 16 бит
Метод сжатия : С потерями
Размер потока : 1,04 Гбайт (21%)
Заголовок : Original
Язык : English
Default : Нет
Forced : Нет

Текст #1
Идентификатор : 5
Формат : UTF-8
Идентификатор кодека : S_TEXT/UTF8
Идентификатор кодека/Информация : UTF-8 Plain Text
Язык : Russian
Default : Нет
Forced : Нет

Текст #2
Идентификатор : 6
Формат : UTF-8
Идентификатор кодека : S_TEXT/UTF8
Идентификатор кодека/Информация : UTF-8 Plain Text
Язык : English
Default : Нет
Forced : Нет

Меню
00:00:00.000 : en:00:00:00.000
00:09:35.000 : en:00:09:35.000
00:17:08.708 : en:00:17:08.708
00:24:02.125 : en:00:24:02.125
00:29:39.542 : en:00:29:39.542
00:38:07.750 : en:00:38:07.750
00:48:59.083 : en:00:48:59.083
00:58:24.958 : en:00:58:24.958
01:08:23.500 : en:01:08:23.500
01:16:15.792 : en:01:16:15.792
01:26:11.958 : en:01:26:11.958
01:30:26.167 : en:01:30:26.167





Вернуться к началу
 Профиль  
 
   Похожие торренты   Автор   Торрент   Размер 
В этой теме нет новых непрочитанных сообщений. Самозванец / Impastor / 2 сезон 1-10 серии из 10 [комедия, 2016] WEB-DL 720p, Mvo [IdeaFilm]

salma3

36 | 25

6.07 ГБ

В этой теме нет новых непрочитанных сообщений. Чудо на Гудзоне / Sully [Драма, биография, 2016] BDRip 720p, Dub [Лицензия]

salma3

316 | 104

1.45 ГБ

В этой теме нет новых непрочитанных сообщений. Суфражистка / Suffragette [драма, биография, история, 2015] BDRip 720p, Dub+Sub [Лицензия]

salma3

112 | 45

7.64 ГБ

В этой теме нет новых непрочитанных сообщений. Чудо на Гудзоне / Sully (Драма, биография, 2016) BDRip 720p от ExKinoRay | Лицензия

marya111

87 | 29

3.86 ГБ

В этой теме нет новых непрочитанных сообщений. Секретное досье / The Post [Триллер, драма, биография, 2017] BDRip 720p, Dub [Лицензия]

salma3

0 | 0

5.95 ГБ

В этой теме нет новых непрочитанных сообщений. Чудо на Гудзоне / Sully [драма, биография, 2016] BDRip 720p, Dub [iPad] [Лицензия]

salma3

0 | 0

1.79 ГБ

В этой теме нет новых непрочитанных сообщений. Афера под прикрытием / The Infiltrator [триллер, драма, криминал, биография, 2016] BDRip 720p, Dub [Лицензия]

salma3

367 | 158

8.84 ГБ


Начать новую тему Ответить на тему  [ 1 сообщение ] 




Для Мосгорсуда, Роскомнадзора и рекламодателей:: mosgorsud-torrent[собачка]yandex.ru
cron