Торрент файл
скачать торрент магнет ссылка Добавлен: 11 дек 2011, 01:03
Размер: 1.33 ГБ
Сидеров: 11
Личеров: 9
Автор

СообщениеДобавлено: 11 дек 2011, 01:03 

Не в сети
Супермодератор
Аватара пользователя
Дата регистрации:
22 май 2010, 11:03
Возраст: 33
Спасибо: 7741 / 13
Сообщения: 49846
Коллекция "Золотой глобус". Фильм 52 - Венгрия. Страна вина, паприки и термальных вод


Перевод: Профессиональный (полное дублирование), cубтитры: отсутствуют
Формат: DVDRip-AVC, MKV, H.264, AC3

Страна: Германия, Польша, Россия
Режиссер: Майкл Линдер
Жанр: путешествия и туризм

Продолжительность: 01:28:15
Год выпуска: 2010

Описание: Наше путешествие по Венгрии мы начинаем в городе Шопрон, на границе с Австрией — здесь в 1989 году рухнула венгерская часть железного занавеса. Через колыбель дунайского государства, город Остригом, королевскую резиденцию Вышеград и помнящий старинные времена город Сентендре мы двинемся в сторону Будапешта. Столица Венгрии — это один из прекраснейших городов Европы. Мы познакомимся с его великолепной архитектурой, знаменитыми купальнями и очаровательными кофейнями, которые в XIX веке пользовались куда большей славой, чем их венские прототипы. Самая небольшая часть Венгрии — расположенные на севере страны отроги Западных Карпат — очарует нас разнообразием пейзажей, историческими памятниками и знаменитыми винами из окрестностей Эгера. Большая Венгерская низменность, протянувшаяся на восток от Дуная и Тисы и занимающая почти половину территории страны, — это Пуста, родина пастухов и наездников-виртоузов. Здесь расположено одно из самых старых мадьярских поселений — Опустасер. также мы посетим старинный город Сегед и живописную Калочу, знаменитую своим рукоделием и самой лучшей в Венгрии... паприкой. переправившись на западный берег Дуная, мы увидим памятники старины Печа и средневекового Шопрона. Поглядим в близи на самую большую туристическую достопримечательность Венгрии — озеро Балатон. Путешествие по дунайскому краю мы завершим в знаменитом святилище в Паннонхалме.

Видео: 720x544 (1.32:1), 25.000 fps, AVC(х264), , ~ 1968 Kbps, 0.201 bit/pixel
Аудио: 48 kHz, AС3 Dolby Digital, 2 ch (L, R), ~ 192 kbps avg

Релиз группа: Автор:


Формат: Matroska
Версия формата: Version 2
Размер файла: 1,33 Гбайт
Продолжительность: 1 ч. 28 м.
Общий поток: 2163 Кбит/сек
Программа кодирования: XviD4PSP 6.0 / 53.6.0
Библиотека кодирования: XviD4PSP 6.0 / 53.6.0

Видео
Идентификатор: 1
Формат: AVC
Формат/Информация: Advanced Video Codec
Профиль формата:
Параметр CABAC формата: Да
Параметр ReFrames формата: 3 кадра
Идентификатор кодека: V_MPEG4/ISO/AVC
Продолжительность: 1 ч. 28 м.
Битрейт: 1968 Кбит/сек
Ширина: 720 пикс.
Высота: 544 пикс.
Соотношение сторон: 1,290
Соотношение сторон в оригинале: 1,292
Режим частоты кадров: Переменный
Частота кадров: 25,000 кадр/сек
Цветовое пространство: YUV
Подвыборка цветности: 4:2:0
Битовая глубина: 8 бит
Тип развёртки: MBAFF
Бит/(Пиксели*Кадры): 0.201
Размер потока: 1,19 Гбайт (89%)
Библиотека кодирования: x264 core 116 r2019M 9cc407d
Настройки программы: cabac=1 / ref=3 / deblock=1:-1:-1 / analyse=0x3:0x133 / me=hex / subme=7 / psy=1 / psy_rd=1.00:0.15 / mixed_ref=1 / me_range=16 / chroma_me=1 / trellis=1 / 8x8dct=1 / cqm=0 / deadzone=21,11 / fast_pskip=1 / chroma_qp_offset=-3 / threads=6 / sliced_threads=0 / nr=0 / decimate=1 / interlaced=tff / bluray_compat=0 / constrained_intra=0 / bframes=3 / b_pyramid=1 / b_adapt=2 / b_bias=0 / direct=3 / weightb=1 / open_gop=0 / weightp=0 / keyint=250 / keyint_min=25 / scenecut=40 / intra_refresh=0 / rc_lookahead=40 / rc=abr / mbtree=1 / bitrate=1968 / ratetol=1.0 / qcomp=0.60 / qpmin=10 / qpmax=51 / qpstep=4 / ip_ratio=1.40 / aq=1:1.00

Аудио
Идентификатор: 2
Формат: AC-3
Формат/Информация: Audio Coding 3
Расширение режима: CM (complete main)
Идентификатор кодека: A_AC3
Продолжительность: 1 ч. 28 м.
Вид битрейта: Постоянный
Битрейт: 192 Кбит/сек
Каналы: 2 канала
Расположение каналов: Front: L R
Частота: 48,0 КГц
Битовая глубина: 16 бит
Метод сжатия: С потерями
Размер потока: 121 Мбайт (9%)
Язык: Russian













Поделиться:



Вернуться к началу
 Профиль Отправить личное сообщение  
 
   Похожие торренты   Автор   Торрент   Размер 
В этой теме нет новых непрочитанных сообщений. Путешествия Гулливера / Gulliver's Travels [Фэнтези, приключения, семейный, 1996] DVDRip, Mvo

salma3

39 | 13

2.19 ГБ

В этой теме нет новых непрочитанных сообщений. Орёл и Решка. Рай и Ад [S13] ( Реалити-шоу, путешествия, познавательный, 2017) WEBRip 720p от New-Team

marya111

139 | 48

2.43 ГБ

В этой теме нет новых непрочитанных сообщений. Непутевые заметки с Дмитрием Крыловым [01-03] ( Документальный, познавательный, путешествие, туризм, 2017) HDTVRip от Files-х

marya111

15 | 3

947.26 МБ

В этой теме нет новых непрочитанных сообщений. Непутевые заметки с Дмитрием Крыловым [01-03] (Документальный, познавательный, путешествие, туризм, 2017) HDTVRip от Files-х

marya111

32 | 5

567.35 МБ

В этой теме нет новых непрочитанных сообщений. National Geographic. Анаконда. Тихий убийца / Anaconda. Silent killer [Документальный, путешествия, природа, 2014] HDTV 1080i, Dub

salma3

84 | 54

3.17 ГБ

В этой теме нет новых непрочитанных сообщений. Discovery. Звездное выживание с Беаром Гриллсом / Running Wild Bear Grylls [03x01] [природа, путешествия, экстрим, 2016] HDTVRip, Dvo

salma3

25 | 35

1 ГБ

В этой теме нет новых непрочитанных сообщений. Дверь / The Door / Az Aito (Иштван Сабо / Istvan Szabo) [2012г., Венгрия, драма, DVDRip] Sub

Alfredovich

17 | 6

1.09 ГБ


Начать новую тему Ответить на тему  [ 1 сообщение ] 




Для Мосгорсуда, Роскомнадзора и рекламодателей:: mosgorsud-torrent[собачка]yandex.ru
cron