Торрент файл
скачать торрент магнет ссылка Добавлен: 11 дек 2011, 01:02
Размер: 1.33 ГБ
Сидеров: 2
Личеров: 8
Автор

СообщениеДобавлено: 11 дек 2011, 01:02 

Не в сети
Супермодератор
Аватара пользователя
Дата регистрации:
22 май 2010, 11:03
Возраст: 33
Спасибо: 7741 / 13
Сообщения: 49846
Коллекция "Золотой глобус". Фильм 54 - Исландия. Страна ледников и вулканов


Перевод: Профессиональный (полное дублирование), cубтитры: отсутствуют
Формат: DVDRip-AVC, MKV, H.264, AC3

Страна: Германия, Польша, Россия
Режиссер: Майкл Линдер
Жанр: путешествия и туризм

Продолжительность: 01:39:06
Год выпуска: 2010

Описание: Исландия... Королевство эльфов и троллей, таинственный край могучих стихий: огня и льда, вулканов и ледников. Под ногами ощущается биение сердца острова. Здесь и там невыносимый жар вырывается на поверхность, образуя прекрасное и угрожающее зрелище. Величественная церковь Хатльгримскиркья и футуристическое водохранилище с горячей термальной водой — это визитные карточки Рейкьявика, столицы Исландии. Посреди полей лавы нам откроется фантастическая Голубая лагуна, питаемая горячим подземным источником. Неподалеку из земли вырываются столбы кипящей воды из Великого Гейсира и гейзера Строккюр. Полюбуемся мы и кратером Хверфьял, струями водяного пара в Намаскаре и одним из крупнейших водопадов в Европе — Деттифоссом. У подножия огромного ледника Ватнаёкуль расположено прекрасное озеро Йокулсарлон, на берегах которого непобедимый Джеймс Бонд сражался со злодеями. Из национального парка Скафтафетль мы отправляемся в «северную столицу», Акюрейри. По дороге мы заглянем в этнографический музей, где, как говорят, живет привидение. Затем мы побываем на конной экскурсии в Хусее и посмотрим на китов в Хусавике. Суровые фьорды на западе Исландии на протяжении долгих веков были родиной черной магии. В Хольмавике мы осмотрим музей, посвященный окрестным колдунам и чародеям. На катамаране достигнем фьорда Брейдафьордур, чьи отвесные скалы заселяют водные птицы.

Видео: 720x544 (1.32:1), 25.000 fps, AVC(х264), , ~ 1728 Kbps, 0.176 bit/pixel
Аудио: 48 kHz, AС3 Dolby Digital, 2 ch (L, R), ~ 192 kbps avg

Релиз группа: Автор:


Формат: Matroska
Версия формата: Version 2
Размер файла: 1,33 Гбайт
Продолжительность: 1 ч. 39 м.
Общий поток: 1920 Кбит/сек
Программа кодирования: XviD4PSP 6.0 / 53.6.0
Библиотека кодирования: XviD4PSP 6.0 / 53.6.0

Видео
Идентификатор: 1
Формат: AVC
Формат/Информация: Advanced Video Codec
Профиль формата:
Параметр CABAC формата: Да
Параметр ReFrames формата: 3 кадра
Идентификатор кодека: V_MPEG4/ISO/AVC
Продолжительность: 1 ч. 39 м.
Битрейт: 1728 Кбит/сек
Ширина: 720 пикс.
Высота: 544 пикс.
Соотношение сторон: 16:9
Соотношение сторон в оригинале: 16:9
Режим частоты кадров: Переменный
Частота кадров: 25,000 кадр/сек
Цветовое пространство: YUV
Подвыборка цветности: 4:2:0
Битовая глубина: 8 бит
Тип развёртки: MBAFF
Бит/(Пиксели*Кадры): 0.176
Размер потока: 1,17 Гбайт (88%)
Библиотека кодирования: x264 core 116 r2019M 9cc407d
Настройки программы: cabac=1 / ref=3 / deblock=1:-1:-1 / analyse=0x3:0x133 / me=hex / subme=7 / psy=1 / psy_rd=1.00:0.15 / mixed_ref=1 / me_range=16 / chroma_me=1 / trellis=1 / 8x8dct=1 / cqm=0 / deadzone=21,11 / fast_pskip=1 / chroma_qp_offset=-3 / threads=6 / sliced_threads=0 / nr=0 / decimate=1 / interlaced=tff / bluray_compat=0 / constrained_intra=0 / bframes=3 / b_pyramid=1 / b_adapt=2 / b_bias=0 / direct=3 / weightb=1 / open_gop=0 / weightp=0 / keyint=250 / keyint_min=25 / scenecut=40 / intra_refresh=0 / rc_lookahead=40 / rc=abr / mbtree=1 / bitrate=1728 / ratetol=1.0 / qcomp=0.60 / qpmin=10 / qpmax=51 / qpstep=4 / ip_ratio=1.40 / aq=1:1.00

Аудио
Идентификатор: 2
Формат: AC-3
Формат/Информация: Audio Coding 3
Расширение режима: CM (complete main)
Идентификатор кодека: A_AC3
Продолжительность: 1 ч. 39 м.
Вид битрейта: Постоянный
Битрейт: 192 Кбит/сек
Каналы: 2 канала
Расположение каналов: Front: L R
Частота: 48,0 КГц
Битовая глубина: 16 бит
Метод сжатия: С потерями
Размер потока: 136 Мбайт (10%)
Язык: Russian















Поделиться:



Вернуться к началу
 Профиль Отправить личное сообщение  
 
   Похожие торренты   Автор   Торрент   Размер 
В этой теме нет новых непрочитанных сообщений. Путешествия Гулливера / Gulliver's Travels [Фэнтези, приключения, семейный, 1996] DVDRip, Mvo

salma3

39 | 13

2.19 ГБ

В этой теме нет новых непрочитанных сообщений. Орёл и Решка. Рай и Ад [S13] ( Реалити-шоу, путешествия, познавательный, 2017) WEBRip 720p от New-Team

marya111

139 | 48

2.43 ГБ

В этой теме нет новых непрочитанных сообщений. Непутевые заметки с Дмитрием Крыловым [01-03] (Документальный, познавательный, путешествие, туризм, 2017) HDTVRip от Files-х

marya111

32 | 5

567.35 МБ

В этой теме нет новых непрочитанных сообщений. Непутевые заметки с Дмитрием Крыловым [01-03] ( Документальный, познавательный, путешествие, туризм, 2017) HDTVRip от Files-х

marya111

15 | 3

947.26 МБ

В этой теме нет новых непрочитанных сообщений. Ледников (1-16 (16) Серии) [2013, Детектив, SATRip]

marya111

0 | 1

7.83 ГБ

В этой теме нет новых непрочитанных сообщений. National Geographic. Анаконда. Тихий убийца / Anaconda. Silent killer [Документальный, путешествия, природа, 2014] HDTV 1080i, Dub

salma3

84 | 54

3.17 ГБ

В этой теме нет новых непрочитанных сообщений. Discovery. Звездное выживание с Беаром Гриллсом / Running Wild Bear Grylls [03x01] [природа, путешествия, экстрим, 2016] HDTVRip, Dvo

salma3

25 | 35

1 ГБ


Начать новую тему Ответить на тему  [ 1 сообщение ] 




Для Мосгорсуда, Роскомнадзора и рекламодателей:: mosgorsud-torrent[собачка]yandex.ru
cron