Торрент файл
скачать торрент магнет ссылка Добавлен: 11 дек 2011, 00:56
Размер: 1.34 ГБ
Сидеров: 7
Личеров: 11
Автор

СообщениеДобавлено: 11 дек 2011, 00:56 

Не в сети
Супермодератор
Аватара пользователя
Дата регистрации:
22 май 2010, 11:03
Возраст: 33
Спасибо: 7741 / 13
Сообщения: 49846
Коллекция "Золотой глобус". Фильм 32 - Доминиканская Республика. Жемчужина Карибского моря


Перевод: Профессиональный (полное дублирование), cубтитры: отсутствуют
Формат: DVDRip-AVC, MKV, H.264, AC3

Страна: Германия, Польша, Россия
Режиссер: Майкл Линдер
Жанр: путешествия и туризм

Продолжительность: 01:26:59
Год выпуска: 2009

Описание: Наше путешествие начнется на юго-востоке, со сказочных пляжей Пунта-Каны. Отсюда мы отправимся вглубь острова, чтобы в маленьких деревушках познакомиться с истинным обликом Карибских островов. Отведаем блюд местной кухни и свежемолотого кофе, после чего погрузимся в мангровые заросли и заглянем в таинственные пещеры, где индейцы тайно многие столетия назад совершали свои загадочные обряды. После «Каса-де-Кампо», одного из наиболее фешенебельных курортов, мы посетим восхитительную, бурлящую жизнью столицу Доминиканы Санто-Доминго. Дорога, идущая вдоль побережья, приведет нас к соленому озеру Энрикильо, где мы понаблюдаем за крокодилами и десятками видов водных птиц в их природной среде обитания. Затем нас ждет встреча с новыми достопримечательностями: Поло Магнетико известен своим необычным оптическим эффектом. Мы посетим петушиные бои в одной из окрестных деревень и, наконец, необыкновенные водопады Баигуате и Хименоа, до которых доберемся верхом. В Сантьяго-де-лос-Кабальерос мы заглянем на фабрику сигар, а в Пуэрто-Плате — в крепость, музей янтаря и на традиционную ярмарку. Вечером освоим меренге, а при случае познакомимся со вкусом известного во всем мире рома. И это не конец нашего путешествия. Нам предстоит встреча со змеями и пауками, сплав по бурным рекам, подводное погружение, серфинг и кульминация прогулка по следам гигантских горбатых китов.

Видео: 720x544 (1.32:1), 25.000 fps, AVC(х264), , ~ 1808 Kbps, 0.185 bit/pixel
Аудио #1: Русский 48 kHz, AС3 Dolby Digital, 2 ch (L, R), ~ 192 kbps avg Профессиональный (полное дублирование)
Аудио #2: Украинский 48 kHz, AС3 Dolby Digital, 2 ch (L, R), ~ 192 kbps avg Профессиональный (полное дублирование)

Релиз группа: Автор:


Формат: Matroska
Версия формата: Version 2
Размер файла: 1,34 Гбайт
Продолжительность: 1 ч. 26 м.
Общий поток: 2200 Кбит/сек
Программа кодирования: XviD4PSP 6.0 / 53.6.0
Библиотека кодирования: XviD4PSP 6.0 / 53.6.0

Видео
Идентификатор: 1
Формат: AVC
Формат/Информация: Advanced Video Codec
Профиль формата:
Параметр CABAC формата: Да
Параметр ReFrames формата: 3 кадра
Параметры GOP формата: M=3, N=10
Идентификатор кодека: V_MPEG4/ISO/AVC
Продолжительность: 1 ч. 26 м.
Битрейт: 1808 Кбит/сек
Ширина: 720 пикс.
Высота: 544 пикс.
Соотношение сторон: 1,290
Соотношение сторон в оригинале: 1,292
Режим частоты кадров: Переменный
Частота кадров: 25,000 кадр/сек
Цветовое пространство: YUV
Подвыборка цветности: 4:2:0
Битовая глубина: 8 бит
Тип развёртки: MBAFF
Бит/(Пиксели*Кадры): 0.185
Размер потока: 1,08 Гбайт (81%)
Библиотека кодирования: x264 core 116 r2019M 9cc407d
Настройки программы: cabac=1 / ref=3 / deblock=1:-1:-1 / analyse=0x3:0x133 / me=hex / subme=7 / psy=1 / psy_rd=1.00:0.15 / mixed_ref=1 / me_range=16 / chroma_me=1 / trellis=1 / 8x8dct=1 / cqm=0 / deadzone=21,11 / fast_pskip=1 / chroma_qp_offset=-3 / threads=6 / sliced_threads=0 / nr=0 / decimate=1 / interlaced=tff / bluray_compat=0 / constrained_intra=0 / bframes=3 / b_pyramid=1 / b_adapt=2 / b_bias=0 / direct=3 / weightb=1 / open_gop=0 / weightp=0 / keyint=250 / keyint_min=25 / scenecut=40 / intra_refresh=0 / rc_lookahead=40 / rc=abr / mbtree=1 / bitrate=1808 / ratetol=1.0 / qcomp=0.60 / qpmin=10 / qpmax=51 / qpstep=4 / ip_ratio=1.40 / aq=1:1.00

Аудио #1
Идентификатор: 2
Формат: AC-3
Формат/Информация: Audio Coding 3
Расширение режима: CM (complete main)
Идентификатор кодека: A_AC3
Продолжительность: 1 ч. 26 м.
Вид битрейта: Постоянный
Битрейт: 192 Кбит/сек
Каналы: 2 канала
Расположение каналов: Front: L R
Частота: 48,0 КГц
Битовая глубина: 16 бит
Метод сжатия: С потерями
Размер потока: 119 Мбайт (9%)
Язык: English

Аудио #2
Идентификатор: 3
Формат: AC-3
Формат/Информация: Audio Coding 3
Расширение режима: CM (complete main)
Идентификатор кодека: A_AC3
Продолжительность: 1 ч. 26 м.
Вид битрейта: Постоянный
Битрейт: 192 Кбит/сек
Каналы: 2 канала
Расположение каналов: Front: L R
Частота: 48,0 КГц
Битовая глубина: 16 бит
Метод сжатия: С потерями
Размер потока: 119 Мбайт (9%)
Язык: English













Поделиться:



Вернуться к началу
 Профиль Отправить личное сообщение  
 
   Похожие торренты   Автор   Торрент   Размер 
В этой теме нет новых непрочитанных сообщений. Пираты Карибского моря: Мертвецы не рассказывают сказки / Pirates of the Caribbean: ... [Фэнтези, боевик, комедия, 2017] Blu-Ray 1080p, Dub+Sub [Лицензия]

salma3

37 | 318

42.24 ГБ

В этой теме нет новых непрочитанных сообщений. Пираты Карибского моря: Мертвецы не рассказывают сказки / Pirates of the Caribbean: Dead Men Tell No Tales [фэнтези, боевик, комедия, 2017] CAMRip, Dub

salma3

38 | 12

1.37 ГБ

В этой теме нет новых непрочитанных сообщений. Пираты Карибского моря: Мертвецы не рассказывают сказки / Pirates of the Caribbean: Dead Men Tell No Tales [фэнтези, боевик, комедия, 2017] BDRip-AVC, Dub+Sub [Лицензия]

salma3

647 | 129

2.18 ГБ

В этой теме нет новых непрочитанных сообщений. Пираты Карибского моря: Мертвецы не рассказывают сказки / Pirates of the Caribbean: Dead Men Tell No Tales [фэнтези, боевик, комедия, 2017] BDRip-AVC, Dub+Sub [Лицензия]

salma3

893 | 271

2.18 ГБ

В этой теме нет новых непрочитанных сообщений. Пираты Карибского моря: Мертвецы не рассказывают сказки / Pirates of the Caribbean: Dead Men Tell No Tales [фэнтези, боевик, комедия, 2017] HDRip-AVC, Dub [Лицензия]

salma3

2320 | 1173

2.87 ГБ

В этой теме нет новых непрочитанных сообщений. Пираты Карибского моря: Мертвецы не рассказывают сказки / Pirates of the Caribbean: Dead Men Tell No Tales [фэнтези, боевик, комедия, 2017] WEB-DL 1080p, Dub [Звук TS]

salma3

7622 | 2960

4.34 ГБ

В этой теме нет новых непрочитанных сообщений. Пираты Карибского моря: Мертвецы не рассказывают сказки / Pirates of the Caribbean: Dead Men Tell No Tales [Фэнтези, боевик, комедия, 2017] BDRemux 1080р, Dub+Sub

salma3

20 | 61

36.51 ГБ


Начать новую тему Ответить на тему  [ 1 сообщение ] 




Для Мосгорсуда, Роскомнадзора и рекламодателей:: mosgorsud-torrent[собачка]yandex.ru
cron