Торрент файл
скачать торрент магнет ссылка Добавлен: 11 дек 2011, 00:45
Размер: 1.45 ГБ
Сидеров: 10
Личеров: 4
Автор

СообщениеДобавлено: 11 дек 2011, 00:45 

Не в сети
Супермодератор
Аватара пользователя
Дата регистрации:
22 май 2010, 11:03
Возраст: 33
Спасибо: 7741 / 13
Сообщения: 49846
Коллекция "Золотой глобус". Фильм 3 - Китай. Срединное государство. Прошлое и настоящее Поднебесной


Перевод: Профессиональный (полное дублирование), cубтитры: отсутствуют
Формат: DVDRip-AVC, MKV, H.264, AC3

Страна: Германия
Режиссер: Майкл Линдер
Жанр: путешествия и туризм

Продолжительность: 01:33:00
Год выпуска: 2008

Описание: Цель нашего путешествия - Срединное государство, история которого насчитывает 4 тыс. лет. Свою экскурсию мы начнём с осмотра Великой китайской стены протяженностью 2400 км - единственной постройки, которую видно из космоса. Затем нам предстоит увидеть многотысячную Терракотовую армию, сопровождающую первого императора Ши Хуанди в его посмертных походах. В Пекине перед нами откроються ворота Запретного города - резиденции могущественных китайских властителей. Также мы побываем в храме Неба и императорском Летнем дворце. Здесь же, в столице, нам откроют секрет приготовления утки по-пекински. Потом- плавание по реке Лицзян, на берегах которой даосские мудрецы искали бессмертия. Затем монахи из монастыря Шаолинь у горы Суншань продемонстрируют нам приёмы боевого искусства кунфу, прославившего их на весь мир. Следующая остановка - в Шанхае, где традиционные китайские одноэтажные дома соседствуют с небоскрёбами суперсовременного района Пудун. А напоследок мы заглянем на тропический остров Хайнань - это настоящий рай для туристов.

Видео: 720x400 (1.36:1), 25.000 fps, AVC(х264), , ~ 1829 Kbps, 0.254 bit/pixel
Аудио #1: Русский 48 kHz, AС3 Dolby Digital, 2 ch (L, R), ~ 192 kbps avg Профессиональный (полное дублирование)
Аудио #2: Украинский 48 kHz, AС3 Dolby Digital, 2 ch (L, R), ~ 192 kbps avg Профессиональный (полное дублирование)

Релиз группа: Автор:




Формат: Matroska
Версия формата: Version 2
Размер файла: 1,45 Гбайт
Продолжительность: 1 ч. 33 м.
Общий поток: 2215 Кбит/сек
Дата кодирования: UTC 2011-09-27 17:26:44
Программа кодирования: mkvmerge v4.0.0 ('The Stars were mine') сборка от Jun6 2010 16:18:42
Библиотека кодирования: libebml v1.0.0 + libmatroska v1.0.0

Видео
Идентификатор: 1
Формат: AVC
Формат/Информация: Advanced Video Codec
Профиль формата:
Параметр CABAC формата: Да
Параметр ReFrames формата: 4 кадра
Идентификатор кодека: V_MPEG4/ISO/AVC
Продолжительность: 1 ч. 33 м.
Битрейт: 1829 Кбит/сек
Ширина: 720 пикс.
Высота: 400 пикс.
Соотношение сторон: 4:3
Соотношение сторон в оригинале: 16:9
Частота кадров: 25,000 кадр/сек
Цветовое пространство: YUV
Подвыборка цветности: 4:2:0
Битовая глубина: 8 бит
Тип развёртки: Прогрессивная
Бит/(Пиксели*Кадры): 0.254
Размер потока: 1,17 Гбайт (81%)
Библиотека кодирования: x264 core 116 r2074 2641b9e
Настройки программы: cabac=1 / ref=3 / deblock=1:0:0 / analyse=0x3:0x113 / me=hex / subme=7 / psy=1 / psy_rd=1.00:0.00 / mixed_ref=1 / me_range=16 / chroma_me=1 / trellis=1 / 8x8dct=1 / cqm=0 / deadzone=21,11 / fast_pskip=1 / chroma_qp_offset=-2 / threads=3 / sliced_threads=0 / nr=0 / decimate=1 / interlaced=0 / bluray_compat=0 / constrained_intra=0 / bframes=3 / b_pyramid=2 / b_adapt=1 / b_bias=0 / direct=1 / weightb=1 / open_gop=0 / weightp=2 / keyint=250 / keyint_min=25 / scenecut=40 / intra_refresh=0 / rc_lookahead=40 / rc=2pass / mbtree=1 / bitrate=1829 / ratetol=1.0 / qcomp=0.60 / qpmin=0 / qpmax=69 / qpstep=4 / cplxblur=20.0 / qblur=0.5 / ip_ratio=1.40 / aq=1:1.00

Аудио #1
Идентификатор: 2
Формат: AC-3
Формат/Информация: Audio Coding 3
Расширение режима: CM (complete main)
Идентификатор кодека: A_AC3
Продолжительность: 1 ч. 33 м.
Вид битрейта: Постоянный
Битрейт: 192 Кбит/сек
Каналы: 2 канала
Расположение каналов: Front: L R
Частота: 48,0 КГц
Битовая глубина: 16 бит
Метод сжатия: С потерями
Размер потока: 128 Мбайт (9%)
Язык: Russian

Аудио #2
Идентификатор: 3
Формат: AC-3
Формат/Информация: Audio Coding 3
Расширение режима: CM (complete main)
Идентификатор кодека: A_AC3
Продолжительность: 1 ч. 33 м.
Вид битрейта: Постоянный
Битрейт: 192 Кбит/сек
Каналы: 2 канала
Расположение каналов: Front: L R
Частота: 48,0 КГц
Битовая глубина: 16 бит
Метод сжатия: С потерями
Размер потока: 128 Мбайт (9%)
Язык: Ukrainian















Поделиться:



Вернуться к началу
 Профиль Отправить личное сообщение  
 
   Похожие торренты   Автор   Торрент   Размер 
В этой теме нет новых непрочитанных сообщений. Путешествия Гулливера / Gulliver's Travels [Фэнтези, приключения, семейный, 1996] DVDRip, Mvo

salma3

39 | 13

2.19 ГБ

В этой теме нет новых непрочитанных сообщений. Орёл и Решка. Рай и Ад [S13] ( Реалити-шоу, путешествия, познавательный, 2017) WEBRip 720p от New-Team

marya111

139 | 48

2.43 ГБ

В этой теме нет новых непрочитанных сообщений. Непутевые заметки с Дмитрием Крыловым [01-03] (Документальный, познавательный, путешествие, туризм, 2017) HDTVRip от Files-х

marya111

32 | 5

567.35 МБ

В этой теме нет новых непрочитанных сообщений. Непутевые заметки с Дмитрием Крыловым [01-03] ( Документальный, познавательный, путешествие, туризм, 2017) HDTVRip от Files-х

marya111

15 | 3

947.26 МБ

В этой теме нет новых непрочитанных сообщений. National Geographic. Анаконда. Тихий убийца / Anaconda. Silent killer [Документальный, путешествия, природа, 2014] HDTV 1080i, Dub

salma3

84 | 54

3.17 ГБ

В этой теме нет новых непрочитанных сообщений. Discovery. Звездное выживание с Беаром Гриллсом / Running Wild Bear Grylls [03x01] [природа, путешествия, экстрим, 2016] HDTVRip, Dvo

salma3

25 | 35

1 ГБ

В этой теме нет новых непрочитанных сообщений. Темное прошлое / Black Past [ужасы, 1989] DVDRip, Dvo

salma3

11 | 3

1.45 ГБ


Начать новую тему Ответить на тему  [ 1 сообщение ] 




Для Мосгорсуда, Роскомнадзора и рекламодателей:: mosgorsud-torrent[собачка]yandex.ru
cron