Торрент файл
скачать торрент магнет ссылка Добавлен: 02 ноя 2011, 05:32
Размер: 711.87 МБ
Сидеров: 0
Личеров: 7
Автор

СообщениеДобавлено: 02 ноя 2011, 05:32 

Не в сети
Супермодератор
Аватара пользователя
Дата регистрации:
22 май 2010, 11:03
Возраст: 33
Спасибо: 7741 / 13
Сообщения: 49846
Сквозь Апокалипсис. История. "Николай II" (Серия 4)


Перевод: Не требуется, cубтитры: отсутствуют
Формат: DVDRip, AVI, XviD, MP3
Страна: Россия
Режиссер: Светлана Пеунова
Жанр: документальный
Продолжительность: 01:07:04
Год выпуска: 2011

Описание: Многие источники указывают на ритуальный характер убийства царской семьи. То есть мало было просто уничтожить русского царя, нужно было сделать так, чтобы это убийство работало на уничтожение всего русской народа, всей России. Кому это было нужно?
Зачем на Красной площади был выстроен мавзолей по всем правилам зиккурата? Такие пирамиды-зиккураты у вавилонян и майя служили для жертвоприношений. Кто же замыслил принести Россию в жертву и кому?
Изучение исторических свидетельств дает неожиданные ответы на эти вопросы.


Видео: 640x480 (1.33:1), 25 fps, XviD build 47 ~1345 kbps avg, 0.17 bit/pixel
Аудио: 48 kHz, MPEG Layer 3, 2 ch, ~128.00 kbps avg

General
Полное имя: E:\torrents\istoriya_nikolai_2_[tfile.ru].avi
Формат: AVI
Формат/Информация: Audio Video Interleave
Размер файла: 712 Мбайт
Продолжительность: 1 ч. 7 м.
Общий поток: 1484 Кбит/сек
Программа кодирования: FairUse Wizard - http://fairusewizard.com
Библиотека кодирования: The best and REALLY easy backup tool

Видео
Идентификатор: 0
Формат: MPEG-4 Visual
Профиль формата: Advanced [email protected]
Параметр BVOP формата: 2
Параметр QPel формата: Нет
Параметр GMC формата: Без точки перехода
Параметр матрицы формата: Default (MPEG)
Идентификатор кодека: XVID
Идентификатор кодека/Подсказка: XviD
Продолжительность: 1 ч. 7 м.
Битрейт: 1346 Кбит/сек
Ширина: 640 пикс.
Высота: 480 пикс.
Соотношение сторон: 4:3
Частота кадров: 25,000 кадр/сек
Цветовое пространство: YUV
Подвыборка цветности: 4:2:0
Битовая глубина: 8 бит
Тип развёртки: Прогрессивная
Метод сжатия: С потерями
Бит/(Пиксели*Кадры): 0.175
Размер потока: 646 Мбайт (91%)
Библиотека кодирования: XviD 1.2.0.dev47 (UTC 2006-11-01)

Аудио
Идентификатор: 1
Формат: MPEG Audio
Версия формата: Version 1
Профиль формата: Layer 3
Режим: Joint stereo
Расширение режима: MS Stereo
Идентификатор кодека: 55
Идентификатор кодека/Подсказка: MP3
Продолжительность: 1 ч. 7 м.
Вид битрейта: Постоянный
Битрейт: 128 Кбит/сек
Канал(ы): 2 канала(ов)
Частота: 48,0 КГц
Метод сжатия: С потерями
Размер потока: 61,4 Мбайт (9%)
Выравнивание: Соединение по промежуткам
Продолжительность промежутка: 40мс. (1,00 видеокадр)
Время предзагрузки промежутка: 504 ms
Библиотека кодирования: LAME3.97
Настройки программы: -m j -V 4 -q 2 -lowpass 17 -b 128







Поделиться:



Вернуться к началу
 Профиль Отправить личное сообщение  
 
   Похожие торренты   Автор   Торрент   Размер 
В этой теме нет новых непрочитанных сообщений. Душ (Николай Сванидзе, Марина Жукова) [Документальный, познавательный, история, 2015] HDTVRip

Dracon

452 | 75

748.13 МБ

В этой теме нет новых непрочитанных сообщений. Странное дело: Апокалипсис. Рождение предков (Эфир от 29.03.2013) [2013, документальный, научно-популярный, история, SATRip]

salma3

0 | 1

565.62 МБ

В этой теме нет новых непрочитанных сообщений. История мира за два часа / History of the World in Two Hours (Дуглас Коэн) [2011, документальный, научно-популярный, история, HDRip] MVO

salma3

0 | 0

1.08 ГБ

В этой теме нет новых непрочитанных сообщений. Его звали ДЕД (Алексей Барбарук-Трипольский) [2011, документальный, военный, история, DVDRip]

salma3

0 | 3

251.32 МБ

В этой теме нет новых непрочитанных сообщений. Братья и птицы (Светлана Быченко) [2013, документальный, приключения, природа, HDRip 720р]

salma3

0 | 0

1.08 ГБ

В этой теме нет новых непрочитанных сообщений. Холодная война [1-8 серия из 8] (Наталия Метлина) [Документальный, война, история, 2015] IPTVRip

Dracon

18 | 3

4.26 ГБ

В этой теме нет новых непрочитанных сообщений. История Nissan Skyline / The Nissan Skyline Story [2003, документальный, история, автомобилестроение, DVDRip] VO

salma3

0 | 1

833.01 МБ


Начать новую тему Ответить на тему  [ 1 сообщение ] 




Для Мосгорсуда, Роскомнадзора и рекламодателей:: mosgorsud-torrent[собачка]yandex.ru
cron