Торрент файл
скачать торрент магнет ссылка Добавлен: 02 ноя 2011, 05:10
Размер: 499.32 МБ
Сидеров: 0
Личеров: 6
Автор

СообщениеДобавлено: 02 ноя 2011, 05:10 

Не в сети
Супермодератор
Аватара пользователя
Дата регистрации:
22 май 2010, 11:03
Возраст: 33
Спасибо: 7741 / 13
Сообщения: 49846
Еще не вечер: Гиблое место


Перевод: Не требуется, cубтитры: отсутствуют
Формат: SATRip, AVI, XviD, MP3
Страна: Россия
Выпущено: телеканал рен
Жанр: документальный
Продолжительность: 00:47:34
Год выпуска: 2011

Описание: В центре программы актуальные и вечные истории из жизни звезд, необычные люди, явления и события. Чего ждать от лета? Куда ехать за прохладой? Почему нам снятся сны? Что происходит на Земле? Стоит ли ожидать глобальных изменений на нашей планете? Эти и другие тайны станут явными в программе «Еще не вечер».

В выпуске: Медведицкая гряда в Волгоградской области, деревня Рвачи в Кировской области, село Мясной бор в Новгородской области. В этих местах происходит странное и необъяснимое. Или людям хочется в это верить?


Видео: 640x480 (1.33:1), 25 fps, XviD ~1329 kbps avg, 0.17 bit/pixel
Аудио: 48 kHz, MPEG Layer 3, 2 ch, ~128.00 kbps avg

Доп. информация: Эфир от 27.07.2011

General
Complete name: D:\фильмы\Eshe.ne.vecher.(2011.07.27)_gibloe_mesto.avi
Format: AVI
Format/Info: Audio Video Interleave
File size: 499 MiB
Duration: 47mn 34s
Overall bit rate: 1 468 Kbps
Writing application: VirtualDubMod 1.5.10.2 (build 2540/release)
Writing library: VirtualDubMod build 2540/release

Video
ID: 0
Format: MPEG-4 Visual
Format profile: [email protected]
Format settings, BVOP: No
Format settings, QPel: No
Format settings, GMC: No warppoints
Format settings, Matrix: Default (H.263)
Codec ID: XVID
Codec ID/Hint: XviD
Duration: 47mn 34s
Bit rate: 1 330 Kbps
Width: 640 pixels
Height: 480 pixels
Display aspect ratio: 4:3
Frame rate: 25.000 fps
Color space: YUV
Chroma subsampling: 4:2:0
Bit depth: 8 bits
Scan type: Progressive
Compression mode: Lossy
Bits/(Pixel*Frame): 0.173
Stream size: 452 MiB (91%)
Writing library: XviD 1.3.0.dev55

Audio
ID: 1
Format: MPEG Audio
Format version: Version 1
Format profile: Layer 3
Mode: Joint stereo
Mode extension: MS Stereo
Codec ID: 55
Codec ID/Hint: MP3
Duration: 47mn 34s
Bit rate mode: Constant
Bit rate: 128 Kbps
Channel(s): 2 channels
Sampling rate: 48.0 KHz
Compression mode: Lossy
Stream size: 43.5 MiB (9%)
Alignment: Split accross interleaves
Interleave, duration: 40 ms (1.00 video frame)
Interleave, preload duration: 500 ms









Поделиться:



Вернуться к началу
 Профиль Отправить личное сообщение  
 
   Похожие торренты   Автор   Торрент   Размер 
В этой теме нет новых непрочитанных сообщений. Непознанное. Путешествия во времени (ООО "Телеканал "ТВ3") [2011, документальный, мистика, непознанное, расследование, SATRip]

salma3

1 | 2

273.89 МБ

В этой теме нет новых непрочитанных сообщений. Место в космосе / A Place in Space (Фредерик Компейн, Серж Брунье) [2012, документальный, SATRip-AVC] VO

salma3

0 | 1

736.92 МБ

В этой теме нет новых непрочитанных сообщений. BBC: Место назначения - Титан / Destination Titan (Пол Ванезис) [2011, документальный, космос, HDTVRip] VO

salma3

0 | 1

843.21 МБ

В этой теме нет новых непрочитанных сообщений. Место встречи. Один за всех?! (Эфир от 19.03.2018) [2018, общественно-политическое ток-шоу, SATRip]

salma3

0 | 0

1.52 ГБ

В этой теме нет новых непрочитанных сообщений. Наш мозг: факты и мифы [2011, документальный, SATRip]

salma3

0 | 0

549.89 МБ

В этой теме нет новых непрочитанных сообщений. Обратный отсчет [4 серии из 4] (Александр Митрошенков) [2011, документальный, SATRip]

salma3

0 | 1

1.3 ГБ

В этой теме нет новых непрочитанных сообщений. О чём молчала тридцать пятая батарея (Олег Штром) [2011, документальный, SATRip]

salma3

0 | 2

522.91 МБ


Начать новую тему Ответить на тему  [ 1 сообщение ] 




Для Мосгорсуда, Роскомнадзора и рекламодателей:: mosgorsud-torrent[собачка]yandex.ru
cron