Торрент файл
скачать торрент магнет ссылка Добавлен: 02 ноя 2011, 05:10
Размер: 501.42 МБ
Сидеров: 0
Личеров: 5
Автор

СообщениеДобавлено: 02 ноя 2011, 05:10 

Не в сети
Супермодератор
Аватара пользователя
Дата регистрации:
22 май 2010, 11:03
Возраст: 33
Спасибо: 7741 / 13
Сообщения: 49846
Еще не вечер: Дорога к славе


Перевод: Не требуется, cубтитры: отсутствуют
Формат: SATRip, AVI, XviD, MP3
Страна: Россия
Выпущено: телеканал рен
Жанр: документальный
Продолжительность: 00:47:43
Год выпуска: 2011

Описание: В центре программы актуальные и вечные истории из жизни звезд, необычные люди, явления и события. Чего ждать от лета? Куда ехать за прохладой? Почему нам снятся сны? Что происходит на Земле? Стоит ли ожидать глобальных изменений на нашей планете? Эти и другие тайны станут явными в программе «Еще не вечер».

В выпуске: Как сегодня проходят кастинги в популярные группы? Кого и как выбирают продюсеры?


Видео: 640x480 (1.33:1), 25 fps, XviD ~1331 kbps avg, 0.17 bit/pixel
Аудио: 48 kHz, MPEG Layer 3, 2 ch, ~128.00 kbps avg

Доп. информация: Эфир от 28.07.2011

General
Complete name: D:\фильмы\Eshe.ne.vecher.(2011.07.28)_doroga_k_slave.avi
Format: AVI
Format/Info: Audio Video Interleave
File size: 501 MiB
Duration: 47mn 43s
Overall bit rate: 1 469 Kbps
Writing application: VirtualDubMod 1.5.10.2 (build 2540/release)
Writing library: VirtualDubMod build 2540/release

Video
ID: 0
Format: MPEG-4 Visual
Format profile: [email protected]
Format settings, BVOP: No
Format settings, QPel: No
Format settings, GMC: No warppoints
Format settings, Matrix: Default (H.263)
Codec ID: XVID
Codec ID/Hint: XviD
Duration: 47mn 43s
Bit rate: 1 331 Kbps
Width: 640 pixels
Height: 480 pixels
Display aspect ratio: 4:3
Frame rate: 25.000 fps
Color space: YUV
Chroma subsampling: 4:2:0
Bit depth: 8 bits
Scan type: Progressive
Compression mode: Lossy
Bits/(Pixel*Frame): 0.173
Stream size: 454 MiB (91%)
Writing library: XviD 1.3.0.dev55

Audio
ID: 1
Format: MPEG Audio
Format version: Version 1
Format profile: Layer 3
Mode: Joint stereo
Mode extension: MS Stereo
Codec ID: 55
Codec ID/Hint: MP3
Duration: 47mn 43s
Bit rate mode: Constant
Bit rate: 128 Kbps
Channel(s): 2 channels
Sampling rate: 48.0 KHz
Compression mode: Lossy
Stream size: 43.7 MiB (9%)
Alignment: Split accross interleaves
Interleave, duration: 40 ms (1.00 video frame)
Interleave, preload duration: 500 ms









Поделиться:



Вернуться к началу
 Профиль Отправить личное сообщение  
 
   Похожие торренты   Автор   Торрент   Размер 
В этой теме нет новых непрочитанных сообщений. Непознанное. Путешествия во времени (ООО "Телеканал "ТВ3") [2011, документальный, мистика, непознанное, расследование, SATRip]

salma3

1 | 2

273.89 МБ

В этой теме нет новых непрочитанных сообщений. Секретные территории - Дорога к вратам судьбы (Эфир от 17.05.2013) (Рен-ТВ) [2013, документальный, SATRip]

salma3

0 | 1

558.77 МБ

В этой теме нет новых непрочитанных сообщений. Запретная дорога / Заповедная дорога / Reservation Road [Триллер, драма, криминал, 2007] HDRip, Mvo

salma3

77 | 6

1.46 ГБ

В этой теме нет новых непрочитанных сообщений. Главная дорога (Эфир от 17.12.2016) [познавательная автопередача, 2016]SATRip

salma3

25 | 3

449.89 МБ

В этой теме нет новых непрочитанных сообщений. Наш мозг: факты и мифы [2011, документальный, SATRip]

salma3

0 | 0

549.89 МБ

В этой теме нет новых непрочитанных сообщений. Главная дорога (Эфир от 27.01.2018) (ТК "НТВ") [2018, познавательная автопередача, SATRip] / Фильмы и телепередачи по авто/мото

salma3

9 | 8

451.99 МБ

В этой теме нет новых непрочитанных сообщений. Главная дорога (Эфир от 20.01.2018) (ТК "НТВ") [2018, познавательная автопередача, SATRip] / Фильмы и телепередачи по авто/мото

salma3

16 | 9

447.24 МБ


Начать новую тему Ответить на тему  [ 1 сообщение ] 




Для Мосгорсуда, Роскомнадзора и рекламодателей:: mosgorsud-torrent[собачка]yandex.ru
cron