Торрент файл
скачать торрент магнет ссылка Добавлен: 02 ноя 2011, 05:10
Размер: 503.56 МБ
Сидеров: 0
Личеров: 9
Автор

СообщениеДобавлено: 02 ноя 2011, 05:10 

Не в сети
Супермодератор
Аватара пользователя
Дата регистрации:
22 май 2010, 11:03
Возраст: 33
Спасибо: 7741 / 13
Сообщения: 49846
Дело особой важности: Иностранцы в России


Перевод: Не требуется, cубтитры: отсутствуют
Формат: SATRip, AVI, XviD, MP3
Страна: Россия
Выпущено: телеканал рен
Жанр: документальный
Продолжительность: 00:47:58
Год выпуска: 2011

Описание: Как живется и работается успешным гражданам благополучных стран Европы и Америки в России?

Видео: 640x480 (1.33:1), 25 fps, XviD ~1329 kbps avg, 0.17 bit/pixel
Аудио: 48 kHz, MPEG Layer 3, 2 ch, ~128.00 kbps avg

Доп. информация: Дата выхода: 01.08.2011

General
Complete name: D:\фильмы\Delo.(2011.08.01)_inostrancy.avi
Format: AVI
Format/Info: Audio Video Interleave
File size: 504 MiB
Duration: 47mn 58s
Overall bit rate: 1 468 Kbps
Writing application: VirtualDubMod 1.5.10.2 (build 2540/release)
Writing library: VirtualDubMod build 2540/release

Video
ID: 0
Format: MPEG-4 Visual
Format profile: [email protected]
Format settings, BVOP: No
Format settings, QPel: No
Format settings, GMC: No warppoints
Format settings, Matrix: Default (H.263)
Codec ID: XVID
Codec ID/Hint: XviD
Duration: 47mn 58s
Bit rate: 1 330 Kbps
Width: 640 pixels
Height: 480 pixels
Display aspect ratio: 4:3
Frame rate: 25.000 fps
Color space: YUV
Chroma subsampling: 4:2:0
Bit depth: 8 bits
Scan type: Progressive
Compression mode: Lossy
Bits/(Pixel*Frame): 0.173
Stream size: 456 MiB (91%)
Writing library: XviD 1.3.0.dev55

Audio
ID: 1
Format: MPEG Audio
Format version: Version 1
Format profile: Layer 3
Mode: Joint stereo
Mode extension: MS Stereo
Codec ID: 55
Codec ID/Hint: MP3
Duration: 47mn 58s
Bit rate mode: Constant
Bit rate: 128 Kbps
Channel(s): 2 channels
Sampling rate: 48.0 KHz
Compression mode: Lossy
Stream size: 43.9 MiB (9%)
Alignment: Split accross interleaves
Interleave, duration: 40 ms (1.00 video frame)
Interleave, preload duration: 500 ms









Поделиться:



Вернуться к началу
 Профиль Отправить личное сообщение  
 
   Похожие торренты   Автор   Торрент   Размер 
В этой теме нет новых непрочитанных сообщений. Непознанное. Путешествия во времени (ООО "Телеканал "ТВ3") [2011, документальный, мистика, непознанное, расследование, SATRip]

salma3

1 | 2

273.89 МБ

В этой теме нет новых непрочитанных сообщений. Странное дело. Ангел безнадежных (эфир 18.01.2013) (рен-тв) [2013, документальный, SATRip]

salma3

0 | 3

570.3 МБ

В этой теме нет новых непрочитанных сообщений. Странное дело. Гибель империй [Эфир от 25.01.2013] (Александр Агеев) [2013, документальный, SATRip]

salma3

1 | 2

616.21 МБ

В этой теме нет новых непрочитанных сообщений. Странное дело: Тайное оружие Гитлера (Эфир от 22.03.2013) [2013, документальный, научно-популярный, история, SATRip]

salma3

3 | 2

563.35 МБ

В этой теме нет новых непрочитанных сообщений. Странное дело: Апокалипсис. Рождение предков (Эфир от 29.03.2013) [2013, документальный, научно-популярный, история, SATRip]

salma3

0 | 1

565.62 МБ

В этой теме нет новых непрочитанных сообщений. Морская сила России (1-6 серии из 6) (Людмила Назарук, Борис Мамлин) [2006 - 2009, документальный, флот, история, война, SATRip]

salma3

13 | 3

3.16 ГБ

В этой теме нет новых непрочитанных сообщений. Служу России (Эфир от 04.02.2018) (ТК Звезда) [2018, документальный, SATRip]

salma3

0 | 0

343.79 МБ


Начать новую тему Ответить на тему  [ 1 сообщение ] 




Для Мосгорсуда, Роскомнадзора и рекламодателей:: mosgorsud-torrent[собачка]yandex.ru
cron