Торрент файл
скачать торрент магнет ссылка Добавлен: 02 ноя 2011, 05:10
Размер: 494.08 МБ
Сидеров: 0
Личеров: 5
Автор

СообщениеДобавлено: 02 ноя 2011, 05:10 

Не в сети
Супермодератор
Аватара пользователя
Дата регистрации:
22 май 2010, 11:03
Возраст: 33
Спасибо: 7741 / 13
Сообщения: 49846
Ещё не вечер: Теневой шоу-бизнес


Перевод: Не требуется, cубтитры: отсутствуют
Формат: SATRip, AVI, XviD, MP3
Страна: Россия
Выпущено: телеканал рен
Жанр: документальный
Продолжительность: 00:47:02
Год выпуска: 2011

Описание: В центре программы актуальные и вечные истории из жизни звезд, необычные люди, явления и события. Чего ждать от лета? Куда ехать за прохладой? Почему нам снятся сны? Что происходит на Земле? Стоит ли ожидать глобальных изменений на нашей планете? Эти и другие тайны станут явными в программе «Еще не вечер».

В выпуске: Как зарождался в стране теневой шоу-бизнес?


Видео: 640x480 (1.33:1), 25 fps, XviD ~1330 kbps avg, 0.17 bit/pixel
Аудио: 48 kHz, MPEG Layer 3, 2 ch, ~128.00 kbps avg

General
Complete name: D:\фильмы\Eshe.ne.vecher.(2011.08.03)_tenevoy_shou_biznes.avi
Format: AVI
Format/Info: Audio Video Interleave
File size: 494 MiB
Duration: 47mn 2s
Overall bit rate: 1 469 Kbps
Writing application: VirtualDubMod 1.5.10.2 (build 2540/release)
Writing library: VirtualDubMod build 2540/release

Video
ID: 0
Format: MPEG-4 Visual
Format profile: [email protected]
Format settings, BVOP: No
Format settings, QPel: No
Format settings, GMC: No warppoints
Format settings, Matrix: Default (H.263)
Codec ID: XVID
Codec ID/Hint: XviD
Duration: 47mn 2s
Bit rate: 1 331 Kbps
Width: 640 pixels
Height: 480 pixels
Display aspect ratio: 4:3
Frame rate: 25.000 fps
Color space: YUV
Chroma subsampling: 4:2:0
Bit depth: 8 bits
Scan type: Progressive
Compression mode: Lossy
Bits/(Pixel*Frame): 0.173
Stream size: 448 MiB (91%)
Writing library: XviD 1.3.0.dev55

Audio
ID: 1
Format: MPEG Audio
Format version: Version 1
Format profile: Layer 3
Mode: Joint stereo
Mode extension: MS Stereo
Codec ID: 55
Codec ID/Hint: MP3
Duration: 47mn 1s
Bit rate mode: Constant
Bit rate: 128 Kbps
Channel(s): 2 channels
Sampling rate: 48.0 KHz
Compression mode: Lossy
Stream size: 43.1 MiB (9%)
Alignment: Split accross interleaves
Interleave, duration: 40 ms (1.00 video frame)
Interleave, preload duration: 500 ms








Поделиться:



Вернуться к началу
 Профиль Отправить личное сообщение  
 
   Похожие торренты   Автор   Торрент   Размер 
В этой теме нет новых непрочитанных сообщений. Непознанное. Путешествия во времени (ООО "Телеканал "ТВ3") [2011, документальный, мистика, непознанное, расследование, SATRip]

salma3

1 | 2

273.89 МБ

В этой теме нет новых непрочитанных сообщений. Теневой заговор / Shadow Conspiracy [боевик, триллер, 1997] WEBDLRip-AVC, Dvo

salma3

51 | 25

1.46 ГБ

В этой теме нет новых непрочитанных сообщений. Теневой заговор / Shadow Conspiracy [Боевик, триллер, 1997] WEB-DLRip 720p, Avo+Dvo

salma3

43 | 18

3.57 ГБ

В этой теме нет новых непрочитанных сообщений. Теневой Заговор / Shadow Conspiracy [боевик, триллер, 1997] WEB-DLRip, Mvo [Первый канал]

salma3

72 | 9

1.39 ГБ

В этой теме нет новых непрочитанных сообщений. Семейный бизнес [2 сезон 14 серия из 20] [комедия, 2015] SATRip

Dracon

0 | 10

319.2 МБ

В этой теме нет новых непрочитанных сообщений. Семейный бизнес [2 сезон 13 серия из 20] [комедия, 2015] SATRip

Dracon

0 | 10

322.43 МБ

В этой теме нет новых непрочитанных сообщений. Семейный бизнес [2 сезон 15 серия из 20] [комедия, 2015] SATRip

Dracon

0 | 10

322.96 МБ


Начать новую тему Ответить на тему  [ 1 сообщение ] 




Для Мосгорсуда, Роскомнадзора и рекламодателей:: mosgorsud-torrent[собачка]yandex.ru
cron