Торрент файл
скачать торрент магнет ссылка Добавлен: 09 май 2018, 11:15
Размер: 1.98 ГБ
Сидеров: 0
Личеров: 0
Автор

СообщениеДобавлено: 09 май 2018, 11:15 

Не в сети
Супермодератор
Аватара пользователя
Дата регистрации:
15 фев 2012, 16:44
Возраст: 28
Спасибо: 7225 / 2147
Сообщения: 68142
Страна: Португалия
Жанр: POP
Год выпуска: 2018
Продолжительность: 01:59:31
Язык комментаторов: Украинский
Формат: MKV
Качество: DVB
Видео кодек: H.264
Аудио кодек: MP2
Видео: H.264, ~ 2 100 Kbps, [email protected] (16:9), 25fps
Аудио: MP2, 48000Hz, 2ch, 192 kbps
01 Азербайджан Айсель Мамедова «Пересеку моё сердце»
02 Исландия Ари Оулавссон «Наш выбор»
03 Албания Евгент Бушпепа «Тоска»
04 Бельгия Сеннек «Дело времени»
05 Чехия Миколас Йозеф «Лги мне»
06 Литва Ева Засимаускайте «Когда мы состаримся»
07 Израиль Нетта Барзилай «Игрушка»
08 Белоруссия Alekseev «Навсегда»
09 Эстония Элина Нечаева «Сила»
10 Болгария EQUINOX «Кости»
11 Македония Eye Cue «Потеряны и найдены»
12 Хорватия Франка «Сумасшедшая»
13 Австрия Сезар Семпсон «Никто кроме тебя»
14 Греция Янна Терзи «Моя мечта»
15 Финляндия Саара Аалто «Монстры»
16 Армения Севак Ханагян «Ветер»
17 Швейцария Zibbz «Камни»
18 Ирландия Райан О’Шонесси «Вместе»
19 Кипр Элени Фурейра «Огонь»
Eurоvision_2018_1_ukr.mkv
Format : Matroska
Format version : Version 4 / Version 2
File size : 1.98 GiB
Duration : 1 h 59 min
Overall bit rate : 2 374 kb/s
Writing application : Lavf57.71.100
Writing library : Lavf57.71.100
ErrorDetectionType : Per level 1
Video
ID : 1
Format : AVC
Format/Info : Advanced Video Codec
Format profile : [email protected]
Format settings : CABAC / 4 Ref Frames
Format settings, CABAC : Yes
Format settings, RefFrames : 4 frames
Codec ID : V_MPEG4/ISO/AVC
Duration : 1 h 59 min
Bit rate : 2 134 kb/s
Width : 720 pixels
Height : 576 pixels
Display aspect ratio : 16:9
Frame rate mode : Constant
Frame rate : 25.000 FPS
Standard : PAL
Color space : YUV
Chroma subsampling : 4:2:0
Bit depth : 8 bits
Scan type : MBAFF
Scan type, store method : Interleaved fields
Scan order : Top Field First
Bits/(Pixel*Frame) : 0.206
Stream size : 1.78 GiB (90%)
Default : Yes
Forced : No
Color range : Limited
Color primaries : BT.601 PAL
Transfer characteristics : BT.470 System B, BT.470 System G
Matrix coefficients : BT.470 System B, BT.470 System G
DURATION : 01:59:31,560000000
Audio
ID : 2
Format : MPEG Audio
Format version : Version 1
Format profile : Layer 2
Format settings : Joint stereo / Intensity Stereo + MS Stereo
Mode : Joint stereo
Mode extension : Intensity Stereo + MS Stereo
Codec ID : A_MPEG/L2
Codec ID/Hint : MP2
Duration : 1 h 59 min
Bit rate mode : Constant
Bit rate : 192 kb/s
Channel(s) : 2 channels
Sampling rate : 48.0 kHz
Compression mode : Lossy
Delay relative to video : 133 ms
Stream size : 164 MiB (8%)
Language : Ukrainian
Default : Yes
Forced : No
DURATION : 01:59:30,437000000


_________________
Проголосуй за трекер Открытый торрент трекер - RUS-MEDIA.ORG

Проголосуй Открытый торрент трекер - RUS-MEDIA.ORG


Вернуться к началу
 Профиль Отправить личное сообщение  
 
   Похожие торренты   Автор   Торрент   Размер 
В этой теме нет новых непрочитанных сообщений. Евровидение 2018. 1-й полуфинал / Eurovision Song Contest (2018) HDTV 1080i

salma3

0 | 0

7.68 ГБ

В этой теме нет новых непрочитанных сообщений. Евровидение 2017. 1-й полуфинал / Eurovision 2017 [Концерт, шоу, 2017] HDTVRip 720p

salma3

27 | 8

7.23 ГБ

В этой теме нет новых непрочитанных сообщений. Евровидение 2017. 1-й полуфинал / Eurovision 2017 [Концерт, шоу, 2017] HDTV 1080i

salma3

82 | 19

7.04 ГБ

В этой теме нет новых непрочитанных сообщений. [MissaX.com / Clips4sale.com] Jessa Rhodes (The Contest II / 14.02.2018) [2018 г., Sisters, Big Tits, Blonde, Blowjob, Fucking, Cowgirl, Doggystyle, Cumshot, Pornstar, 720p]

salma3

38 | 13

780.91 МБ

В этой теме нет новых непрочитанных сообщений. [MissaX.com / Clips4sale.com] Jessa Rhodes (The Contest II / 14.02.2018) [2018 г., Sisters, Big Tits, Blonde, Blowjob, Fucking, Cowgirl, Doggystyle, Cumshot, Pornstar, 1080p]

salma3

0 | 1

2.07 ГБ

В этой теме нет новых непрочитанных сообщений. [VixenX.com / PropertySex.com] Abella Danger (Contest Winner / 26.01.2018) [2018 г., All Sex, POV, Brunette, Hardcore, Blowjob, Cowgirl, Doggystyle, Natural Tits, Facial, 1080p]

salma3

11 | 4

3.79 ГБ

В этой теме нет новых непрочитанных сообщений. Евровидение 2017. Финал / Eurovision 2017 (2017) HDTVRip

salma3

284 | 36

2.47 ГБ


Начать новую тему Ответить на тему  [ 1 сообщение ] 




Для Мосгорсуда, Роскомнадзора и рекламодателей:: mosgorsud-torrent[собачка]yandex.ru
cron