Торрент файл
скачать торрент магнет ссылка Добавлен: 09 май 2013, 15:37
Размер: 3.61 ГБ
Сидеров: 8
Личеров: 2
Автор

СообщениеДобавлено: 09 май 2013, 15:37 

Не в сети
Зам. Админа
Аватара пользователя
Дата регистрации:
02 дек 2010, 12:39
Спасибо: 12654 / 214
Сообщения: 28010
Год выпуска: 2013
Страна: Россия
Студия: ВГТРК, Первый канал
Жанр:Военный парад
Продолжительность: 01:01:04
Перевод: Не требуется
Русские субтитры: нет

Описание: Военный парад в ознаменование 68-й годовщины Победы в Великой Отечественной войне пройдет на Красной площади в Москве. В составе механизированной колонны парадного расчета по брусчатке, как и в прошлом году, пройдут три автономных пусковых установки подвижного грунтового ракетного комплекса "Тополь-М“, а в небе пролетят 68 самолетов и вертолетов ВВС - по числу лет, пошедших с 9 мая 1945 года.

Тип релиза: HDTV 1080i
Контейнер: TS

Источник: собственный рип

Доп. информация: Релиз -


Рип чистый. Без посторонних надписей. Выкладывается как есть.

Видео кодек: AVC
Аудио кодек: AC3
Видео: 1920x1080 (16:9) 25.000 fps 7 858 Kbps, 0.152 bit/pixel
Аудио: MPEG Audio 48000Hz stereo 192 Кбит/сек





GeneralID: 1 (0x1)Complete name: C:Парад Победы. Москва. Красная Площадь (2013, Военный парад, HDTV) (РОссия HD) (MYDIMKA).tsFormat: MPEG-TSFile size: 3.57 GiBDuration: 1h 0mnOverall bit rate mode: VariableOverall bit rate: 8 460 Kbps

VideoID: 2911 (0xB5F)Menu ID: 1 (0x1)Format: AVCFormat/Info: Advanced Video CodecFormat profile: [email protected] settings, CABAC: YesFormat settings, ReFrames: 3 framesCodec ID: 27Duration: 1h 0mnBit rate: 7 848 KbpsWidth: 1 920 pixelsHeight: 1 080 pixelsDisplay aspect ratio: 16:9Frame rate: 25.000 fpsColor space: YUVChroma subsampling: 4:2:0Bit depth: 8 bitsScan type: MBAFFBits/(Pixel*Frame): 0.151Stream size: 3.32 GiB (93%)

AudioID: 2912 (0xB60)Menu ID: 1 (0x1)Format: MPEG AudioFormat version: Version 1Format profile: Layer 2Mode: Joint stereoMode extension: Intensity Stereo + MS StereoCodec ID: 3Duration: 1h 0mnBit rate mode: ConstantBit rate: 192 KbpsChannel(s): 2 channelsSampling rate: 48.0 KHzCompression mode: LossyStream size: 83.0 MiB (2%)Language: Russian



Вернуться к началу
 Профиль  
 
   Похожие торренты   Автор   Торрент   Размер 
В этой теме нет новых непрочитанных сообщений. Парад Победы. Москва. Красная площадь [Документальный, военный парад, 2018] HDTV 1080i

salma3

340 | 231

4.8 ГБ

В этой теме нет новых непрочитанных сообщений. Парад Победы. Москва. Красная площадь [Документальный, военный парад, 2017] HDTVRip

salma3

327 | 49

780.89 МБ

В этой теме нет новых непрочитанных сообщений. Парад Победы. Москва. Красная площадь [Документальный, военный парад, 2017] HDTVRip 720p

salma3

171 | 9

1.48 ГБ

В этой теме нет новых непрочитанных сообщений. Торжественный марш, посвященный 74-й годовщине Парада 7 ноября 1941 года. Москва. Красная площадь (Россия) [Документальный, парад, 2015] HDTV 1080i

Dracon

145 | 66

3.1 ГБ

В этой теме нет новых непрочитанных сообщений. Новогодний парад звезд (2018) HDTV 1080i от Files-x

salma3

15 | 7

8.19 ГБ

В этой теме нет новых непрочитанных сообщений. Новогодний парад звёзд & Новогодний голубой огонёк 2016 (Россия) [Поп, ТВ-Шоу, Концерт, 2015-2016] HDTVRip 1080i

Dracon

107 | 61

31.66 ГБ

В этой теме нет новых непрочитанных сообщений. Привет от Катюши [01-04 из 04] [Драма, военный, 2013] HDTV 1080i

salma3

3 | 4

13.18 ГБ


Начать новую тему Ответить на тему  [ 1 сообщение ] 




Для Мосгорсуда, Роскомнадзора и рекламодателей:: mosgorsud-torrent[собачка]yandex.ru
cron