Торрент файл
скачать торрент магнет ссылка Добавлен: 25 апр 2013, 20:03
Размер: 8.93 ГБ
Сидеров: 1
Личеров: 8
Автор

СообщениеДобавлено: 25 апр 2013, 20:03 

Не в сети
Зам. Админа
Аватара пользователя
Дата регистрации:
02 дек 2010, 12:39
Спасибо: 12654 / 214
Сообщения: 28010


Год выпуска: 2013
Страна: Россия
Жанр:конференция
Продолжительность: 04:47:43
Перевод: Не требуется
Русские субтитры: нет

Описание: Специальная программа, в ходе которой президент отвечает на вопросы, касающиеся общественно-политической и социально-экономической жизни страны. Задавать вопросы могут не только приглашенные в студию программы гости, но и граждане в ходе прямых включений из городов России.

Прямой поток со спутника

качество: DVB
формат: MPEG-PS
видеокодек: MPEG2
аудиокодек: MP2
Видео: 4173 Кбит/сек, 720х576, 16:9, 25,000 кадров/сек
Аудио: 192 Кбит/сек, 2 канала, 48,0 КГц

Формат : MPEG-PS
Размер файла : 8,95 Гбайт
Продолжительность : 4 ч. 47 м.
Режим общего битрейта : Переменный
Общий поток : 4454 Кбит/сек

Видео
Идентификатор : 224 (0xE0)
Формат : MPEG Video
Версия формата : Version 2
Профиль формата : [email protected]
Параметр BVOP формата : Да
Параметр матрицы формата : Выборочная
Параметр GOP формата : M=3, N=12
Продолжительность : 4 ч. 47 м.
Вид битрейта : Переменный
Битрейт : 4173 Кбит/сек
Максимальный битрейт : 15,0 Мбит/сек
Ширина : 720 пикселей
Высота : 576 пикселей
Соотношение сторон : 16:9
Частота кадров : 25,000 кадров/сек
Стандарт вещания : PAL
Цветовое пространство : YUV
Субдискретизация насыщенности : 4:2:0
Битовая глубина : 8 бит
Тип развёртки : Чересстрочная
Порядок развёртки : Верхнее поле первое
Метод сжатия : С потерями
Бит/(Пиксели*Кадры) : 0.403
TimeCode_FirstFrame : 00:00:00:00
TimeCode_Source : Group of pictures header
Размер потока : 8,39 Гбайт (94%)

Аудио
Идентификатор : 192 (0xC0)
Формат : MPEG Audio
Версия формата : Version 1
Профиль формата : Layer 2
Продолжительность : 4 ч. 47 м.
Вид битрейта : Постоянный
Битрейт : 192 Кбит/сек
Каналы : 2 канала
Частота : 48,0 КГц
Метод сжатия : С потерями
Размер потока : 395 Мбайт (4%)





Вернуться к началу
 Профиль  
 
   Похожие торренты   Автор   Торрент   Размер 
В этой теме нет новых непрочитанных сообщений. Белковский. Прямая линия [01.12] (Информационно-аналитическая программа, интервью, 2016) WEBRip 720p

marya111

17 | 0

1.02 ГБ

В этой теме нет новых непрочитанных сообщений. Белковский. Прямая линия [29.11] (Информационно-аналитическая программа, интервью, 2016) WEBRip 720p

marya111

47 | 7

562.32 МБ

В этой теме нет новых непрочитанных сообщений. Пресс-конференция польских журналистов по итогам их визита в Крым [Интервью, пресс-конференция, эфир от 2016.01.25] WEB-DL 720p

Dracon

1 | 1

632.75 МБ

В этой теме нет новых непрочитанных сообщений. Большая пресс-конференция Сергея Лаврова по итогам 2015 года [Пресс-конференция, 26/01/2016] WEBRip

Dracon

7 | 1

508.81 МБ

В этой теме нет новых непрочитанных сообщений. Пресс-конференция концерна «Алмаз-Антей» по причинам трагедии MH 17 (RT) [Документальный, пресс-конференция, 2015] WEB-DL 720p

Dracon

8 | 0

1.89 ГБ

В этой теме нет новых непрочитанных сообщений. Пресс-конференция В.Путина и Ф.Олланда (Россия 1) [Пресс-конференция, 26.11.2015] HDTVRip

Dracon

1 | 1

367.46 МБ

В этой теме нет новых непрочитанных сообщений. Владимир Путин на форуме ОНФ в Ставрополе [Интервью, пресс-конференция, эфир от 2016.01.25] WEB-DL 720p

Dracon

7 | 5

2.47 ГБ


Начать новую тему Ответить на тему  [ 1 сообщение ] 




Для Мосгорсуда, Роскомнадзора и рекламодателей:: mosgorsud-torrent[собачка]yandex.ru
cron