Торрент файл
скачать торрент магнет ссылка Добавлен: 28 окт 2011, 02:27
Размер: 484.68 МБ
Сидеров: 62
Личеров: 10
Автор

СообщениеДобавлено: 28 окт 2011, 02:27 

Не в сети
Супермодератор
Аватара пользователя
Дата регистрации:
22 май 2010, 11:03
Возраст: 33
Спасибо: 7741 / 13
Сообщения: 49846
Загадки нашего Я


Перевод: Не требуется, cубтитры: есть
Формат: DVDRip, MP4, MPEG-4, AAC
Страна: Россия
Режиссер: Виктор Фокеев
Жанр: документальный
Продолжительность: 00:55:08
Год выпуска: 2011

В ролях: Вадим Зеланд, Амит Госвами, Ши Дэян, Ринад Минвалеев, Марк Комиссаров, Владимир Тонков, Шераб Тензин Ринпоче, Дульнев Геннадий, Альберт Крашенюк

Описание: Фильм о возможностях человека с разных точек зрения: наука, религия.
В этом фильме мы попробуем рассказать и показать, что человек способен меняться, он способен влиять на окружающий мир и самого себя. Мы хотим разобраться в вопросе, чем же является наше Я. И закончить тем, что человек может все!




Видео: 640x480, 23.97fps, MPEG-4 Video, 1097 Kbps, 0.149 bit/pixel
Аудио: 48KHz, AAC, 2 channels (L, R), 128 Kbps

General
Complete name: D:\8_TORRENTS\2011_Загадки нашего я.mp4
Format: MPEG-4
Format profile: Base Media
Codec ID: isom
File size: 485 MiB
Duration: 55mn 8s
Overall bit rate: 1 229 Kbps
Encoded date: UTC 2011-10-10 16:21:56
Tagged date: UTC 2011-10-10 16:21:56
Writing application: Lavf51.12.1

Video
ID: 1
Format: MPEG-4 Visual
Format profile: [email protected]
Format settings, BVOP: No
Format settings, QPel: No
Format settings, GMC: No warppoints
Format settings, Matrix: Default (H.263)
Codec ID: 20
Duration: 55mn 7s
Bit rate mode: Variable
Bit rate: 1 097 Kbps
Width: 640 pixels
Height: 480 pixels
Display aspect ratio: 4/3
Frame rate mode: Constant
Frame rate: 23.976 fps
Resolution: 24 bits
Colorimetry: 4:2:0
Scan type: Progressive
Bits/(Pixel*Frame): 0.149
Stream size: 432 MiB (89%)
Writing library: Lavc51.40.4
Language: English
Encoded date: UTC 2011-10-10 16:21:56
Tagged date: UTC 2011-10-10 16:21:56

Audio
ID: 2
Format: AAC
Format/Info: Advanced Audio Codec
Format version: Version 4
Format profile: LC
Format settings, SBR: No
Codec ID: 40
Duration: 55mn 8s
Bit rate mode: Variable
Bit rate: 128 Kbps
Channel(s): 2 channels
Channel positions: L R
Sampling rate: 48.0 KHz
Resolution: 16 bits
Stream size: 50.5 MiB (10%)
Language: English
Encoded date: UTC 2011-10-10 16:21:56
Tagged date: UTC 2011-10-10 16:21:56













Поделиться:



Вернуться к началу
 Профиль Отправить личное сообщение  
 
   Похожие торренты   Автор   Торрент   Размер 
В этой теме нет новых непрочитанных сообщений. Испытание бомбой (Виктор Ющенко) [2004, документальный, оружие, история, IPTVRip]

salma3

2 | 2

427.97 МБ

В этой теме нет новых непрочитанных сообщений. Загадки планеты Земля / Discovery: What on Earth? [01-05 из 05] [Документальный, наука, космос, история, 2015] HDTVRip, Avo

salma3

587 | 131

2.69 ГБ

В этой теме нет новых непрочитанных сообщений. Загадки темной материи / The Mystery of Dark Matter (Сесиль Данжан) [2008, документальный, SATRip]

salma3

0 | 3

638.06 МБ

В этой теме нет новых непрочитанных сообщений. Загадки планеты Земля / Discovery: What on Earth? [01-02] [2015, Документальный, наука, космос, история, HDTVRip 720p]

salma3

0 | 0

2.56 ГБ

В этой теме нет новых непрочитанных сообщений. Секретные территории. Чудовища. Загадки времени [Эфир от 25.01.2013] (Екатерина Давидяк) [2013, документальный, SATRip]

salma3

0 | 1

612.01 МБ

В этой теме нет новых непрочитанных сообщений. Его звали ДЕД (Алексей Барбарук-Трипольский) [2011, документальный, военный, история, DVDRip]

salma3

0 | 3

251.32 МБ

В этой теме нет новых непрочитанных сообщений. Наука голодания (Сильвия Жильман, Тьерри де Лестрад) [2011, документальный, медицина, DVDRip] AVO

salma3

0 | 0

700.09 МБ


Начать новую тему Ответить на тему  [ 1 сообщение ] 




Для Мосгорсуда, Роскомнадзора и рекламодателей:: mosgorsud-torrent[собачка]yandex.ru
cron