Торрент файл
скачать торрент магнет ссылка Добавлен: 18 мар 2017, 05:05
Размер: 2.19 ГБ
Сидеров: 2
Личеров: 2
Автор

СообщениеДобавлено: 18 мар 2017, 05:05 

Не в сети
Супермодератор
Аватара пользователя
Дата регистрации:
15 фев 2012, 16:44
Возраст: 28
Спасибо: 7290 / 2147
Сообщения: 70562
BBC: Чудеса Солнечной Системы (5 серий из 5) / BBC: Wonders of the Solar System
Перевод: Профессиональный (одноголосый), cубтитры: отсутствуют
Формат: SATRip-AVC, MKV, H.264, AC3
Страна: Великобритания, BBC
Режиссер: вам
Жанр: документальный, космос
Продолжительность: 5х~00:50:00
Год выпуска: 2010

Описание:
Сериал погружает зрителя в незнакомый ему мир: гигантские ледяные фонтаны; океан, скрытый подо льдом; штормы, вдвое сильнее земных; огромные вулканы, способные разорвать планету на части. Сериал раскрывает необычную красоту нашей Солнечной системы. Компьютерная анимация позволила придать изображению космоса движение.


Видео: 704х360 (1.96:1), 25 fps, AVC (x264), ~1060 kbps avg, 0.167 bit/pixel
Аудио: 48 kHz, АС-3, 2 ch, ~192.00 kbps avg
Тех. данные серий идентичны

Complete name : D:Мои Раздачи 05.2013BBC.Chudesa Solnechnoj sistemi.2010.SATRip-AVC.[tfile.ru]4-BBC.Chudesa Solnechnoj sistemi.2010.SATRip-AVC.[tfile.ru].mkv
Format : Matroska
Format version : Version 2
File size : 448 MiB
Duration : 49mn 55s
Overall bit rate : 1 254 Kbps
Encoded date : UTC 2011-01-27 19:46:55
Writing application : mkvmerge v4.4.0 ('Die Wiederkehr') сборка от Dec 25 2010 23:32:50
Writing library : libebml v1.0.0 + libmatroska v1.0.0

Video #1
ID : 1
Format : AVC
Format/Info : Advanced Video Codec
Format profile :
Format settings, CABAC : Yes
Format settings, ReFrames : 11 frames
Codec ID : V_MPEG4/ISO/AVC
Duration : 49mn 55s
Bit rate : 1 060 Kbps
Width : 704 pixels
Height : 360 pixels
Display aspect ratio : 1.956
Frame rate : 25.000 fps
Color space : YUV
Chroma subsampling : 4:2:0
Bit depth : 8 bits
Scan type : Progressive
Bits/(Pixel*Frame) : 0.167
Stream size : 370 MiB (83%)
Title : Rip by iriston
Writing library : x264 core 112 r1834 a51816a
Encoding settings : cabac=1 / ref=11 / deblock=1:-2:-1 / analyse=0x3:0x133 / me=umh / subme=10 / psy=1 / psy_rd=1.00:0.20 / mixed_ref=1 / me_range=16 / chroma_me=1 / trellis=2 / 8x8dct=1 / cqm=0 / deadzone=21,11 / fast_pskip=0 / chroma_qp_offset=-3 / threads=12 / sliced_threads=0 / nr=0 / decimate=0 / interlaced=0 / constrained_intra=0 / bframes=8 / b_pyramid=2 / b_adapt=2 / b_bias=0 / direct=3 / weightb=1 / open_gop=0 / weightp=2 / keyint=250 / keyint_min=25 / scenecut=40 / intra_refresh=0 / rc_lookahead=60 / rc=2pass / mbtree=1 / bitrate=1060 / ratetol=1.0 / qcomp=0.60 / qpmin=0 / qpmax=51 / qpstep=4 / cplxblur=20.0 / qblur=0.5 / ip_ratio=1.40 / aq=2:1.00
Language : English
Default : Yes
Forced : No
Matrix coefficients : BT.470-6 System B, BT.470-6 System G, BT.601-6 625, BT.1358 625, BT.1700 625 PAL, BT.1700 625 SECAM, IEC 61966-2-4 601

Audio #2
ID : 2
Format : AC-3
Format/Info : Audio Coding 3
Mode extension : CM (complete main)
Codec ID : A_AC3
Duration : 49mn 55s
Bit rate mode : Constant
Bit rate : 192 Kbps
Channel(s) : 2 channels
Channel positions : Front: L R
Sampling rate : 48.0 KHz
Bit depth : 16 bits
Compression mode : Lossy
Stream size : 68.6 MiB (15%)
Language : Russian
Default : Yes
Forced : No








_________________
Проголосуй за трекер Открытый торрент трекер - RUS-MEDIA.ORG

Проголосуй Открытый торрент трекер - RUS-MEDIA.ORG


Вернуться к началу
 Профиль Отправить личное сообщение  
 
   Похожие торренты   Автор   Торрент   Размер 
В этой теме нет новых непрочитанных сообщений. Океаны Солнечной системы / Oceans of the Solar System [документальный, научно-популярный, 2015] HDTVRip, Dvo

salma3

223 | 13

698.36 МБ

В этой теме нет новых непрочитанных сообщений. BBC: Вояджер: Полет за пределы Солнечной системы / BBC: Voyager: To the Final Frontier (Кристофер Райли) [2012, документальный, научно-познавательный, космос, SATRip] VO

salma3

1 | 3

723.07 МБ

В этой теме нет новых непрочитанных сообщений. National Geographic. Взлом системы / Hacking the system [S01] [Документальный, познавательный, приключения, 2015] HDTVRip, Dub

salma3

13 | 1

2.18 ГБ

В этой теме нет новых непрочитанных сообщений. Большая история: Вселенная. Тайны солнечной бездны (Александр Милославов) [2008, документальный, SATRip]

salma3

1 | 3

779.12 МБ

В этой теме нет новых непрочитанных сообщений. Natural Wonders Of The World In Lingerie 3 / Естественные чудеса мира в дамском белье 3 (Roy Alexandre, Blue Coyote) [2008 г., All Sex, Oral Sex, DVDRip]

salma3

9 | 4

1.15 ГБ

В этой теме нет новых непрочитанных сообщений. Natural Wonders Of The World 28 / Натуральные чудеса света 28 (Roy Alexandre, Blue Coyote Pictures. Anita Queen, Caroline, Mandy May, Marketa, Sindy Shy, Charlie Stygger, George Uhl, Peter Pan, Randy) [2003 г., Anal, Big Natural Tits, DP, D

salma3

8 | 2

1.46 ГБ

В этой теме нет новых непрочитанных сообщений. Современные чудеса. Арсенал Джеймса Бонда [01-02] (History Channel) [2002, документальный, научно-познавательный, технологии, SATRip] AVO

salma3

0 | 0

906.53 МБ


Начать новую тему Ответить на тему  [ 1 сообщение ] 




Для Мосгорсуда, Роскомнадзора и рекламодателей:: mosgorsud-torrent[собачка]yandex.ru
cron