Торрент файл
скачать торрент магнет ссылка Добавлен: 09 дек 2011, 23:58
Размер: 3.87 ГБ
Сидеров: 12
Личеров: 14
Автор

СообщениеДобавлено: 09 дек 2011, 23:58 

Не в сети
Супермодератор
Аватара пользователя
Дата регистрации:
11 апр 2010, 18:10
Спасибо: 5996 / 7
Сообщения: 56684
Здравия желаю! или Бешеный дембель



Перевод: Не требуется
Субтитры: отсутствуют
Формат: DVD5, DVD Video, MPEG2, AC3
Страна: СССР
Режиссер: Юрий Волкогон
Жанр: Комедия, военный
Продолжительность: 01:15:51
Год выпуска: 1990

В ролях: Вячеслав Кириличев, Виктор Ильичев, Михаил Кононов, Антон Андросов, Николай Гейко, Олег Комаров, Юрий Катин-Ярцев, Виктор Соловьев, Александр Симонов, Виталий Царегородцев

Описание: Эксцентрическая комедия о молодом солдате Мите Агафонове, который, предельно точно исполняя все требования воинского устава, совершенно измучил свое начальство. Генералы подают в отставку, «деды» молят о пощаде…

Рейтинг на КиноПоиск:5.827

Видео: 720x576, ( PAL4:3), MPEG2 Video, 25,000 кадр/сек, ~ 8500 Кбит/сек
Аудио: Русский, 48,0 КГц, AC3, 2 канала(ов), ~192 Кбит/сек


Полное имя: Н:\ZDRAVIE_ZHELAU\VIDEO_TS\VTS_01_2.VOB
Формат: MPEG-PS
Размер файла: 1024 Мбайт
Продолжительность: 20 м.
Общий поток: 7064 Кбит/сек
Видео
Идентификатор: 224 (0xE0)
Формат: MPEG Video
Версия формата: Version 2
Профиль формата: [email protected]
Параметр BVOP формата: Да
Параметр матрицы формата: По умолчанию
Параметры GOP формата: M=3, N=15
Продолжительность: 20 м.
Вид битрейта: Переменный
Битрейт: 6731 Кбит/сек
Номинальный битрейт: 8500 Кбит/сек
Ширина: 720 пикс.
Высота: 576 пикс.
Соотношение сторон: 4:3
Частота кадров: 25,000 кадр/сек
Стандарт вещания: PAL
Цветовое пространство: YUV
Подвыборка цветности: 4:2:0
Битовая глубина: 8 бит
Тип развёртки: Чересстрочная
Порядок развёртки: Нижнее поле первое
Метод сжатия: С потерями
Бит/(Пиксели*Кадры): 0.649
Размер потока: 976 Мбайт (95%)
Аудио
Идентификатор: 128 (0x80)
Формат: AC-3
Формат/Информация: Audio Coding 3
Расширение режима: CM (complete main)
Продолжительность: 20 м.
Вид битрейта: Постоянный
Битрейт: 192 Кбит/сек
Канал(ы): 2 канала(ов)
Расположение каналов: Front: L R
Частота: 48,0 КГц
Битовая глубина: 16 бит
Метод сжатия: С потерями
Задержка видео: -152 мс.
Размер потока: 27,8 Мбайт (3%)
Меню

























Поделиться:



Вернуться к началу
 Профиль Отправить личное сообщение  
 
   Похожие торренты   Автор   Торрент   Размер 
В этой теме нет новых непрочитанных сообщений. Бешеный пёс / War Dog [боевик, триллер, драма, военный, 1987] DVDRip, Dvo

salma3

2 | 3

1.45 ГБ

В этой теме нет новых непрочитанных сообщений. 13 часов: Тайные солдаты Бенгази / 13 Hours [боевик, триллер, драма, военный, 2016] DVD5, Dub

salma3

3 | 1

4.37 ГБ

В этой теме нет новых непрочитанных сообщений. Из 13 в 30 / 13 Going on 30 [Комедия, мелодрама, 2004] DVD5, Mvo

salma3

7 | 0

4.33 ГБ

В этой теме нет новых непрочитанных сообщений. Бармен ( комедия, фэнтези, 2015) DVD5

marya111

0 | 4

4.37 ГБ

В этой теме нет новых непрочитанных сообщений. Я желаю вам любви / Je vous souhaite d'être follement aimée (Оуни Леком / Ounie Lecomte) [2015г., Франция, драма, HDTVRip] sub

Alfredovich

0 | 0

1.48 ГБ

В этой теме нет новых непрочитанных сообщений. Жидкое небо / Liquid Sky [фантастика, комедия, 1982] DVD5, Avo

salma3

0 | 3

4.36 ГБ

В этой теме нет новых непрочитанных сообщений. Дух студента / School Spirit [комедия, фэнтези, 1985] DVD5, Avo

salma3

99 | 33

4.29 ГБ


Начать новую тему Ответить на тему  [ 1 сообщение ] 




Для Мосгорсуда, Роскомнадзора и рекламодателей:: mosgorsud-torrent[собачка]yandex.ru
cron