Торрент файл
скачать торрент магнет ссылка Добавлен: 26 апр 2018, 14:22
Размер: 1.5 ГБ
Сидеров: 760
Личеров: 204
Статус: (salma3)
Автор

СообщениеДобавлено: 26 апр 2018, 14:22 

Не в сети
Супермодератор
Аватара пользователя
Дата регистрации:
15 фев 2012, 16:44
Возраст: 28
Спасибо: 7285 / 2147
Сообщения: 70380
Год выпуска: 2018
Жанр: комедия, мелодрама
Режиссер: Алексей Нужный

В ролях: Александра Бортич, Ирина Горбачёва, Евгений Кулик (II), Роман Курцын, Сергей Шнуров, Александр Пташенчук, Елена Валюшкина, Олег Кассин, Анна Котова-Дерябина

Описание:
В жизни у Ани две любви — еда и красавец-спортсмен Женя. После того, как Женя бросает её из-за того, что она поправилась, Аня решает бороться за свою любовь и сбросить 20 кг. Но оказывается, что в одиночку бороться с едой и с килограммами непросто. На помощь Ане приходит одержимый здоровым образом жизни толстяк Коля.



Выпущено: Россия, Vice Films
Продолжительность: 01:34:06
Язык: Русский[iTunes]

Формат: WEB-DLRip-AVC
Видео: 1024x428 (2,40:1), 25 fps, AVC MPEG-4 (x264), ~ 1792 kbps , 0.164 bit/pixel
Аудио: 48 kHz, AC3 Dolby Digital, 3/2 (L,C,R,l,r) + LFE ch, ~384 kbps

Общее
Уникальный идентификатор : 197298096664667101573010905669365470559 (0x946E3B3221E1CCACB76C63BCBF85155F)
Полное имя : C:\Users\User\Desktop\Новая папка\Losing.weight.2O18.O.WEB-DLRip.AVC.ExKinoRay.mkv
Формат : Matroska
Версия формата : Version 2
Размер файла : 1,50 Гбайт
Продолжительность : 1 ч. 38 м.
Общий поток : 2177 Кбит/сек
Название фильма : Я худею 2018 from ExKinoRay
Дата кодирования : UTC 2018-04-26 02:56:04
Программа кодирования : mkvmerge v5.6.0 ('Kenya Kane') built on May 27 2012 16:44:04
Библиотека кодирования : libebml v1.2.3 + libmatroska v1.3.0

Видео
Идентификатор : 1
Формат : AVC
Формат/Информация : Advanced Video Codec
Профиль формата :
Настройки формата : CABAC / 12 Ref Frames
Параметр CABAC формата : Да
Параметр RefFrames формата : 12 кадров
Идентификатор кодека : V_MPEG4/ISO/AVC
Продолжительность : 1 ч. 38 м.
Битрейт : 1792 Кбит/сек
Ширина : 1024 пикселя
Высота : 428 пикселей
Соотношение сторон : 2,40:1
Режим частоты кадров : Постоянный
Частота кадров : 25,000 кадров/сек
Цветовое пространство : YUV
Субдискретизация насыщенности : 4:2:0
Битовая глубина : 8 бит
Тип развёртки : Прогрессивная
Бит/(Пиксели*Кадры) : 0.164
Размер потока : 1,20 Гбайт (80%)
Заголовок : Enigma
Библиотека кодирования : x264 core 152 r2851 ba24899
Настройки программы : cabac=1 / ref=12 / deblock=1:-2:-2 / analyse=0x3:0x113 / me=umh / subme=10 / psy=1 / psy_rd=1.04:0.10 / mixed_ref=1 / me_range=32 / chroma_me=1 / trellis=2 / 8x8dct=1 / cqm=0 / deadzone=21,11 / fast_pskip=0 / chroma_qp_offset=-3 / threads=12 / lookahead_threads=3 / sliced_threads=0 / nr=0 / decimate=0 / interlaced=0 / bluray_compat=0 / constrained_intra=0 / bframes=12 / b_pyramid=2 / b_adapt=2 / b_bias=0 / direct=3 / weightb=1 / open_gop=0 / weightp=2 / keyint=240 / keyint_min=24 / scenecut=40 / intra_refresh=0 / rc_lookahead=40 / rc=2pass / mbtree=0 / bitrate=1792 / ratetol=1.0 / qcomp=0.60 / qpmin=0 / qpmax=51 / qpstep=4 / cplxblur=20.0 / qblur=0.5 / vbv_maxrate=50000 / vbv_bufsize=62500 / nal_hrd=none / filler=0 / ip_ratio=1.40 / pb_ratio=1.30 / aq=1:1.00
Язык : English
Default : Да
Forced : Нет
Цветовой диапазон : Limited
Основные цвета : BT.709
Характеристики трансфера : BT.709
Коэффициенты матрицы : BT.709

Аудио
Идентификатор : 2
Формат : AC-3
Формат/Информация : Audio Coding 3
Идентификатор кодека : A_AC3
Продолжительность : 1 ч. 38 м.
Вид битрейта : Постоянный
Битрейт : 384 Кбит/сек
Каналы : 6 каналов
Расположение каналов : Front: L C R, Side: L R, LFE
Частота : 48,0 КГц
Частота кадров : 31,250 кадров/сек (1536 SPF)
Битовая глубина : 16 бит
Метод сжатия : С потерями
Размер потока : 270 Мбайт (18%)
Язык : Russian
ServiceKind/String : Complete Main
Default : Да
Forced : Нет

Меню
00:00:00.000 : en:Глава 1
00:07:05.200 : en:Глава 2
00:15:08.160 : en:Глава 3
00:22:09.760 : en:Глава 4
00:29:00.280 : en:Глава 5
00:36:41.960 : en:Глава 6
00:43:20.520 : en:Глава 7
00:51:15.240 : en:Глава 8
00:58:42.640 : en:Глава 9
01:06:14.120 : en:Глава 10
01:13:24.240 : en:Глава 11
01:20:43.280 : en:Глава 12
01:27:54.240 : en:Глава 13




_________________
Проголосуй за трекер Открытый торрент трекер - RUS-MEDIA.ORG

Проголосуй Открытый торрент трекер - RUS-MEDIA.ORG


Вернуться к началу
 Профиль Отправить личное сообщение  
 
   Похожие торренты   Автор   Торрент   Размер 
В этой теме нет новых непрочитанных сообщений. Я худею [комедия, мелодрама, 2018] WEB-DLRip [iTunes]

salma3

9297 | 691

1.37 ГБ

В этой теме нет новых непрочитанных сообщений. Я худею [Комедия, 2018] BDRip-AVC [Лицензия]

salma3

5 | 1

2.18 ГБ

В этой теме нет новых непрочитанных сообщений. Я худею [Комедия, 2018] BDRip [Лицензия]

salma3

0 | 0

1.46 ГБ

В этой теме нет новых непрочитанных сообщений. Я худею [Комедия, 2018] BDRip [Лицензия]

salma3

0 | 0

1.46 ГБ

В этой теме нет новых непрочитанных сообщений. Я худею [Комедия, 2018] BDRip 1080p [Лицензия]

salma3

0 | 0

8.71 ГБ

В этой теме нет новых непрочитанных сообщений. Я худею [Комедия, 2018] BDRip 720p [Лицензия]

salma3

0 | 0

5.47 ГБ

В этой теме нет новых непрочитанных сообщений. Моя жизнь [Мелодрама, 2018] WEB-DLRip [iTunes]

salma3

613 | 39

1.46 ГБ


Начать новую тему Ответить на тему  [ 1 сообщение ] 




Для Мосгорсуда, Роскомнадзора и рекламодателей:: mosgorsud-torrent[собачка]yandex.ru
cron