Торрент файл
скачать торрент магнет ссылка Добавлен: 28 мар 2018, 11:02
Размер: 1.84 ГБ
Сидеров: 646
Личеров: 69
Статус: (salma3)
Автор

СообщениеДобавлено: 28 мар 2018, 11:02 

Не в сети
Супермодератор
Аватара пользователя
Дата регистрации:
15 фев 2012, 16:44
Возраст: 28
Спасибо: 7285 / 2147
Сообщения: 70259
Год выпуска: 2018
Жанр:мелодрама, драма, спорт
Режиссер: Олег Трофим

В ролях: Аглая Тарасова, Диана Енакаева, Мария Аронова, Александр Петров, Милош Бикович, Ян Цапник, Ксения Раппопорт, Павел Майков

Описание:
С самого детства Надя верила в чудеса. Она представляла себе, как выходит на лёд под овации публики и танцует свой самый красивый танец. И вот, благодаря вере и упорству, Надя становится знаменитой фигуристкой. Но когда ее мечты о громких победах, красивой жизни и прекрасном принце уже, кажется, готовы исполниться, судьба преподносит ей настоящее испытание. И чтобы его пройти, нужно будет снова, как в детстве, поверить в мечту. Ведь, может быть, победа не всегда должна быть громкой, а прекрасный принц не обязательно передвигается на белом коне..?



Страна:Россия
Продолжительность:01:57:51
Перевод:не требуется [iTunes]

Качество: WEB-DLRip-AVC
Видео: 1024x426 (2.40:1), 23,976 fps, x264 ~1 855 kbps avg, 0.177 bit/pixel
Аудио: 48 kHz, AC3 Dolby Digital, 3/2 (L,C,R,l,r) + LFE ch, ~384.00 kbps avg | RUS (iTunes)

Общее
Уникальный идентификатор : 203728918272334840717786509142872678766 (0x9944C32E354BA56CB682EF345799E16E)
Полное имя : E:OlLanDGroupIce.2018.WEB-DLRip(AVC).OlLanDGroup.mkv
Формат : Matroska
Версия формата : Version 2
Размер файла : 1,84 Гбайт
Продолжительность : 1 ч. 57 м.
Общий поток : 2241 Кбит/сек
Название фильма : Ice.2018 #TorpedoUK#
Дата кодирования : UTC 2018-03-28 06:10:00
Программа кодирования : mkvmerge v7.8.0 ('River Man') 32bit built on Apr 3 2015 12:11:22
Библиотека кодирования : libebml v1.3.1 + libmatroska v1.4.2

Видео
Идентификатор : 1
Формат : AVC
Формат/Информация : Advanced Video Codec
Профиль формата : [email protected]
Параметр CABAC формата : Да
Параметр ReFrames формата : 10 кадров
Идентификатор кодека : V_MPEG4/ISO/AVC
Продолжительность : 1 ч. 57 м.
Битрейт : 1855 Кбит/сек
Ширина : 1024 пикселя
Высота : 426 пикселей
Соотношение сторон : 2,40:1
Режим частоты кадров : Постоянный
Частота кадров : 23,976 (24000/1001) кадра/сек
Цветовое пространство : YUV
Субдискретизация насыщенности : 4:2:0
Битовая глубина : 8 бит
Тип развёртки : Прогрессивная
Бит/(Пиксели*Кадры) : 0.177
Размер потока : 1,49 Гбайт (81%)
Библиотека кодирования : x264 core 146 r2538 121396c
Настройки программы : cabac=1 / ref=10 / deblock=1:-3:-3 / analyse=0x3:0x133 / me=umh / subme=11 / psy=1 / psy_rd=0.99:0.06 / mixed_ref=1 / me_range=48 / chroma_me=1 / trellis=2 / 8x8dct=1 / cqm=0 / deadzone=21,11 / fast_pskip=1 / chroma_qp_offset=-3 / threads=6 / lookahead_threads=1 / sliced_threads=0 / nr=0 / decimate=1 / interlaced=0 / bluray_compat=0 / constrained_intra=0 / bframes=10 / b_pyramid=2 / b_adapt=2 / b_bias=0 / direct=3 / weightb=1 / open_gop=0 / weightp=2 / keyint=240 / keyint_min=23 / scenecut=40 / intra_refresh=0 / rc_lookahead=40 / rc=2pass / mbtree=0 / bitrate=1855 / ratetol=1.0 / qcomp=0.60 / qpmin=0 / qpmax=69 / qpstep=4 / cplxblur=20.0 / qblur=0.5 / vbv_maxrate=50000 / vbv_bufsize=62500 / nal_hrd=none / filler=0 / ip_ratio=1.40 / pb_ratio=1.30 / aq=1:1.00
Язык : English
Default : Да
Forced : Нет

Аудио
Идентификатор : 2
Формат : AC-3
Формат/Информация : Audio Coding 3
Расширение режима : CM (complete main)
Параметр Endianness формата : Big
Идентификатор кодека : A_AC3
Продолжительность : 1 ч. 57 м.
Вид битрейта : Постоянный
Битрейт : 384 Кбит/сек
Каналы : 6 каналов
Расположение каналов : Front: L C R, Side: L R, LFE
Частота : 48,0 КГц
Частота кадров : 31,250 кадров/сек (1536 spf)
Битовая глубина : 16 бит
Метод сжатия : С потерями
Размер потока : 324 Мбайт (17%)
Заголовок : [ORIGINAL] DD 5.1 @ 384 kbps (iTunes)
Язык : Russian
Default : Да
Forced : Нет

Текст #1
Идентификатор : 3
Формат : UTF-8
Идентификатор кодека : S_TEXT/UTF8
Идентификатор кодека/Информация : UTF-8 Plain Text
Заголовок : Full-length
Язык : Ukrainian
Default : Нет
Forced : Нет

Текст #2
Идентификатор : 4
Формат : UTF-8
Идентификатор кодека : S_TEXT/UTF8
Идентификатор кодека/Информация : UTF-8 Plain Text
Заголовок : Full-length
Язык : English
Default : Нет
Forced : Нет

Меню
00:00:00.000 : en:1
00:07:48.301 : en:2
00:13:18.089 : en:3
00:22:37.606 : en:4
00:28:37.090 : en:5
00:37:43.845 : en:6
00:43:55.716 : en:7
00:51:19.993 : en:8
00:56:57.580 : en:9
01:05:08.279 : en:10
01:12:38.687 : en:11
01:20:38.083 : en:12
01:27:28.243 : en:13
01:34:14.357 : en:14
01:42:28.517 : en:15
01:48:50.357 : en:16




Релиз от: Rip by:


_________________
Проголосуй за трекер Открытый торрент трекер - RUS-MEDIA.ORG

Проголосуй Открытый торрент трекер - RUS-MEDIA.ORG


Вернуться к началу
 Профиль Отправить личное сообщение  
 
   Похожие торренты   Автор   Торрент   Размер 
В этой теме нет новых непрочитанных сообщений. Лёд [мелодрама, драма, спорт, 2018] WEB-DLRip [iTunes]

salma3

122 | 17

2.18 ГБ

В этой теме нет новых непрочитанных сообщений. Тренер [драма, спорт, 2018] WEB-DLRip [iTunes]

salma3

253 | 6

1.09 ГБ

В этой теме нет новых непрочитанных сообщений. Тренер [драма, спорт, 2018] WEB-DLRip [iTunes]

salma3

8738 | 235

1.46 ГБ

В этой теме нет новых непрочитанных сообщений. Эластико [Мелодрама, криминал, спорт, 2016] WEB-DLRip, [iTunes]

salma3

12757 | 2070

1.46 ГБ

В этой теме нет новых непрочитанных сообщений. Эластико (спорт, мелодрама, криминал, 2016) WEB-DLRip от Scarabey | iTunes

marya111

928 | 125

1.45 ГБ

В этой теме нет новых непрочитанных сообщений. Купи меня [Драма, мелодрама, 2018] WEB-DLRip [iTunes]

salma3

669 | 228

1.46 ГБ

В этой теме нет новых непрочитанных сообщений. Довлатов [Драма, мелодрама, биография, 2018] WEB-DLRip [iTunes]

salma3

3 | 3

2.18 ГБ


Начать новую тему Ответить на тему  [ 1 сообщение ] 




Для Мосгорсуда, Роскомнадзора и рекламодателей:: mosgorsud-torrent[собачка]yandex.ru
cron